<?xml version="1.0" standalone="no"?>
<!DOCTYPE svg PUBLIC "-//W3C//DTD SVG 1.1//EN" "http://www.w3.org/Graphics/SVG/1.1/DTD/svg11.dtd" >
<svg>
<metadata>
Created by FontForge 20090914 at Sun Dec  6 11:05:24 2020
 By www-data
</metadata>
<defs>
<font id="Medel-Regular" horiz-adv-x="616" >
  <font-face 
    font-family="Medel"
    font-weight="400"
    font-stretch="normal"
    units-per-em="1000"
    panose-1="0 0 0 0 0 0 0 0 0 0"
    ascent="800"
    descent="-200"
    x-height="476"
    cap-height="699"
    bbox="-98.999 -237.999 1003 887.001"
    underline-thickness="50"
    underline-position="-50"
    unicode-range="U+000A-U+015F"
  />
<missing-glyph horiz-adv-x="500" 
 />
    <glyph glyph-name=".notdef" horiz-adv-x="500" 
 />
    <glyph glyph-name="LF" unicode="&#xa;" horiz-adv-x="0" 
 />
    <glyph glyph-name="controlCR" unicode="&#xd;" horiz-adv-x="0" 
 />
    <glyph glyph-name="space" unicode=" " horiz-adv-x="250" 
 />
    <glyph glyph-name="exclam" unicode="!" horiz-adv-x="205" 
d="M66 584v49c0 20 7.16699 37.167 21.5 51.5s31.5 21.5 51.5 21.5v-122l-4 -374h-65zM139.5 88c10.333 -10 15.5 -22 15.5 -36c0 -14.667 -5.16699 -27.167 -15.5 -37.5s-22.5 -15.5 -36.5 -15.5c-14.667 0 -27.167 5.16699 -37.5 15.5s-15.5 22.833 -15.5 37.5
c0 14 5.16699 26 15.5 36s22.833 15 37.5 15c14 0 26.167 -5 36.5 -15z" />
    <glyph glyph-name="numbersign" unicode="#" horiz-adv-x="769" 
d="M520 195l-29 -130.001c-4 -18.667 -13.5 -34 -28.5 -46s-31.833 -18 -50.5 -18l42 194h-212l-42 -194h-65l42 194h-69c-16 0 -29.667 5.66699 -41 17s-17 25 -17 41h140l46 211h-127v58h140l25 115c4 18.667 13.5 33.834 28.5 45.501s32.167 17.5 51.5 17.5l-40 -178h213
l39 178h65l-39 -178h127c0 -16 -5.66699 -29.667 -17 -41s-25 -17 -41 -17h-82l-46 -211h127v-58h-140zM514 463.999h-213l-46 -211h213z" />
    <glyph glyph-name="dollar" unicode="$" horiz-adv-x="578" 
d="M472 57.5c-37.333 -36.333 -85.333 -57.1631 -144 -62.4961v-27c0 -16.667 -6 -31 -18 -43s-26.333 -18 -43 -18v88c-38.667 4 -74 15.667 -106 35s-57.667 43.166 -77 71.499s-30.666 57.833 -33.999 88.5c6.66699 2 13.667 3 21 3c14 0 27.167 -3.5 39.5 -10.5
s22.166 -16.833 29.499 -29.5c14 -22.667 32.167 -42 54.5 -58s46.5 -26.333 72.5 -31v260l-30 7c-50.667 11.333 -90.667 30.666 -120 57.999c-32 30.667 -48 71 -48 121c0 36 9 68 27 96s42 50.167 72 66.5s63 26.166 99 29.499v31c0 17.333 6 31.833 18 43.5
s26.333 17.5 43 17.5v-93c56.667 -6.66699 101 -25.667 133 -57s52 -67 60 -107c-7.33301 -2.66699 -15.333 -4 -24 -4c-13.333 0 -25.833 3.16699 -37.5 9.5s-21.167 14.833 -28.5 25.5c-24 34.667 -58.333 56 -103 64v-245l3 -1c58.667 -12 104 -32.333 136 -61
c21.333 -19.333 36.833 -40.833 46.5 -64.5s14.5 -44.834 14.5 -63.501c0 -56.667 -18.667 -103.167 -56 -139.5zM178.5 596.003c-24.333 -22 -36.5 -49.333 -36.5 -82c0 -27.333 8.5 -50.833 25.5 -70.5s42.5 -33.167 76.5 -40.5l23 -5v237
c-34.667 -4 -64.167 -17 -88.5 -39zM418 102.503c24 21.667 35.999 50.5 35.999 86.5c0 30 -8.66699 54 -26 72s-33.166 29.833 -47.499 35.5s-31.5 11.167 -51.5 16.5h-1v-249c36 4 66 16.833 90 38.5z" />
    <glyph glyph-name="quotesingle" unicode="'" horiz-adv-x="229" 
d="M73 508c20.667 16 35.333 33.667 44 53c-2.66699 -0.666992 -7 -1 -13 -1c-4 0 -7 0.333008 -9 1c-13.333 3.33301 -24.166 10 -32.499 20s-12.5 21.667 -12.5 35c0 19.333 6.16699 35 18.5 47s27.166 18 44.499 18c3.33301 0 8.33301 -0.666992 15 -2
c18 -4 31.167 -12.167 39.5 -24.5s12.5 -27.166 12.5 -44.499c0 -23.333 -6.83301 -47.833 -20.5 -73.5s-31.167 -46.834 -52.5 -63.501z" />
    <glyph glyph-name="asterisk" unicode="*" horiz-adv-x="451" 
d="M162 459c-10 -14 -24 -21.001 -42 -21.001c-11.333 0 -21.666 3.33301 -30.999 10l85 118l-88 29c-10.667 3.33301 -19.334 9.5 -26.001 18.5s-10 19.167 -10 30.5c0 6 1 12 3 18l139 -46v97c0 14.667 5.16699 27 15.5 37s22.833 15 37.5 15v-149l89 29c6 2 12 3 18 3
c11.333 0 21.5 -3.33301 30.5 -10s15.167 -15.334 18.5 -26.001l-138 -46l54 -75c6.66699 -9.33301 10 -19.666 10 -30.999c0 -17.333 -7.33301 -31.666 -22 -42.999l-87 118z" />
    <glyph glyph-name="plus" unicode="+" horiz-adv-x="538" 
d="M116 370c-18 0 -33.501 6.5 -46.501 19.5s-19.5 28.5 -19.5 46.5h186v116c0 18.667 6.5 34.5 19.5 47.5s28.833 19.5 47.5 19.5v-183h119c18.667 0 34.334 -6.5 47.001 -19.5s19 -28.5 19 -46.5h-185v-118c0 -18.667 -6.5 -34.5 -19.5 -47.5s-28.833 -19.5 -47.5 -19.5
v185h-120z" />
    <glyph glyph-name="comma" unicode="," horiz-adv-x="233" 
d="M163.5 104c13 -16 19.5 -37.333 19.5 -64v-4c0 -40.667 -13.667 -78.667 -41 -114l-41 26c16.667 21.333 26.334 42 29.001 62c-6.66699 -3.33301 -13.667 -5 -21 -5c-17.333 0 -31.5 5.33301 -42.5 16s-16.5 25 -16.5 43s6.16699 33.167 18.5 45.5
s27.166 18.5 44.499 18.5c20.667 0 37.5 -8 50.5 -24z" />
    <glyph glyph-name="hyphen" unicode="-" horiz-adv-x="355" 
d="M283.5 246.5c-14.333 -14.333 -31.833 -21.5 -52.5 -21.5h-181c0 20.667 7.16699 38.167 21.5 52.5s31.833 21.5 52.5 21.5h181c0 -20.667 -7.16699 -38.167 -21.5 -52.5z" />
    <glyph glyph-name="period" unicode="." horiz-adv-x="235" 
d="M158 96.5c11.333 -11 17 -24.5 17 -40.5s-5.66699 -29.667 -17 -41s-24.666 -17 -39.999 -17c-16 0 -29.667 5.66699 -41 17s-17 25 -17 41s5.66699 29.5 17 40.5s25 16.5 41 16.5c15.333 0 28.666 -5.5 39.999 -16.5z" />
    <glyph glyph-name="slash" unicode="/" horiz-adv-x="478" 
d="M366.5 715.5c18.333 12.333 38.833 18.5 61.5 18.5l-277 -664c-8.66699 -20.667 -22.167 -37 -40.5 -49s-38.5 -18 -60.5 -18l276 663c8.66699 20.667 22.167 37.167 40.5 49.5z" />
    <glyph glyph-name="zero" unicode="0" horiz-adv-x="681" 
d="M499.5 662c43.667 -34 76.4961 -78.167 98.4961 -132.5s33 -111.5 33 -171.5s-11.167 -117.5 -33.5 -172.5s-55.666 -99.667 -99.999 -134s-97.166 -51.5 -158.499 -51.5s-113.666 17 -156.999 51s-76.166 78 -98.499 132s-33.5 111 -33.5 171s11.333 117.5 34 172.5
s56.167 99.833 100.5 134.5s97.166 52 158.499 52c60.667 0 112.834 -17 156.501 -51zM460.496 110.5c32.333 29 56.334 65.668 72.001 110.001s23.5 88.833 23.5 133.5s-7.83301 89.5 -23.5 134.5s-39.834 82.333 -72.501 112s-72.667 44.5 -120 44.5
s-87.166 -14.5 -119.499 -43.5s-56.166 -65.5 -71.499 -109.5s-23 -88.667 -23 -134s7.83301 -90.333 23.5 -135s39.667 -81.834 72 -111.501s72.166 -44.5 119.499 -44.5s87.166 14.5 119.499 43.5z" />
    <glyph glyph-name="one" unicode="1" horiz-adv-x="325" 
d="M275 80c0 -20 -7 -37.167 -21 -51.5s-31.333 -21.5 -52 -21.5v590l-64 -38c-9.33301 -6.66699 -20.333 -10 -33 -10c-11.333 0 -21.833 2.83301 -31.5 8.5s-17.5 13.5 -23.5 23.5l225 137v-638z" />
    <glyph glyph-name="two" unicode="2" horiz-adv-x="572" 
d="M502.5 55.5c13 -13 19.501 -29.165 19.501 -48.498h-472v22c0 97.333 54 179 162 245l106 66c40 24.667 70.333 49.167 91 73.5s31 55.166 31 92.499c0 24 -6.5 46.667 -19.5 68s-31.167 38.5 -54.5 51.5s-49.666 19.5 -78.999 19.5c-36 0 -66.333 -8.66699 -91 -26
s-42.334 -38.333 -53.001 -63l-4 -9c-5.33301 -15.333 -14.833 -27.5 -28.5 -36.5s-28.5 -13.5 -44.5 -13.5c-4.66699 0 -8.33398 0.333008 -11.001 1c0 34 9.33301 67.667 28 101s45.667 60.833 81 82.5s76.666 32.5 123.999 32.5c42 0 80.5 -9.5 115.5 -28.5
s62.5 -44.333 82.5 -76s30 -65.5 30 -101.5c0 -46.667 -12.167 -86.5 -36.5 -119.5s-61.166 -64.833 -110.499 -95.5l-110 -69c-76.667 -48.667 -117 -98.334 -121 -149.001h316c19.333 0 35.5 -6.5 48.5 -19.5z" />
    <glyph glyph-name="three" unicode="3" horiz-adv-x="583" 
d="M499 306.5c22.667 -29.667 34 -65.168 34 -106.501c0 -36 -10.167 -69.167 -30.5 -99.5s-48.833 -54.5 -85.5 -72.5s-78.667 -27 -126 -27c-40.667 0 -78.5 7.83301 -113.5 23.5s-63.833 38 -86.5 67s-36.334 62.5 -41.001 100.5l4 1c6.66699 1.33301 11.667 2 15 2
c14.667 0 28.167 -4 40.5 -12s22.166 -18.667 29.499 -32c14 -26 34 -46.333 60 -61s56.667 -22 92 -22c48 0 88.167 12 120.5 36s48.5 55.667 48.5 95c0 40 -14.667 71.5 -44 94.5s-71 34.5 -125 34.5c-12.667 0 -23.334 4.33301 -32.001 13s-13 19.334 -13 32.001v23h43
c30.667 0 58 5.66699 82 17s42.333 26.666 55 45.999s19 40.333 19 63c0 37.333 -13.5 67.333 -40.5 90s-65.167 34 -114.5 34c-33.333 0 -62.166 -6.5 -86.499 -19.5s-43.166 -31.167 -56.499 -54.5c-8 -13.333 -18.5 -24 -31.5 -32s-26.833 -12 -41.5 -12
c-4 0 -10 0.666992 -18 2c4.66699 32.667 17.334 63 38.001 91s48 50.333 82 67s72 25 114 25c48.667 0 90 -8.66699 124 -26s59.667 -40.166 77 -68.499s26 -58.5 26 -90.5c0 -73.333 -37.333 -126.666 -112 -159.999v-1c40 -10.667 71.333 -30.834 94 -60.501z" />
    <glyph glyph-name="four" unicode="4" horiz-adv-x="652" 
d="M583 219.5c12.667 -12.333 19 -27.167 19 -44.5h-117v-97c0 -19.333 -7 -36 -21 -50s-31 -21 -51 -21v168h-363v80l343 451h92v-468h53c17.333 0 32.333 -6.16699 45 -18.5zM115 237.999h298v392z" />
    <glyph glyph-name="five" unicode="5" horiz-adv-x="584" 
d="M423 427.5c34.667 -18.333 61.834 -44.498 81.501 -78.498s29.5 -74 29.5 -120c0 -48 -11.667 -89.167 -35 -123.5s-53.833 -60.333 -91.5 -78s-77.167 -26.5 -118.5 -26.5c-38.667 0 -75.5 7.83301 -110.5 23.5s-64 38 -87 67s-36.833 62.5 -41.5 100.5l71 15
c6 -40.667 24.667 -74 56 -100s69.333 -39 114 -39c25.333 0 51 5.66699 77 17s47.833 29 65.5 53s26.5 54 26.5 90c0 53.333 -16.5 93.666 -49.5 120.999s-72.833 41 -119.5 41c-17.333 0 -35 -2.66699 -53 -8s-35 -13.333 -51 -24c-20.667 -14 -43.667 -21 -69 -21
c-14 0 -27 2.33301 -39 7l-3 1l60 361h367c0 -18.667 -6.66699 -34.834 -20 -48.501s-29.666 -20.5 -48.999 -20.5h-241l-40 -237c19.333 19.333 43.666 33.333 72.999 42s55.666 13 78.999 13c44 0 83.333 -9.16699 118 -27.5z" />
    <glyph glyph-name="six" unicode="6" horiz-adv-x="601" 
d="M440.5 431.5c35.667 -20.333 63.002 -47.666 82.002 -81.999s28.5 -71.5 28.5 -111.5c0 -50.667 -11.833 -94 -35.5 -130s-54.5 -63 -92.5 -81s-78 -27 -120 -27c-40 0 -79.833 10.833 -119.5 32.5s-69.5 50.167 -89.5 85.5c-16.667 30.667 -28.167 59.667 -34.5 87
s-9.5 62.666 -9.5 105.999c0 74.667 13.167 142.5 39.5 203.5s65.333 109.333 117 145s113.5 53.5 185.5 53.5c42.667 0 79 -5.33301 109 -16c-6 -18 -16.833 -32 -32.5 -42s-32.834 -14 -51.501 -12l-24 1c-52.667 0 -98.5 -12.5 -137.5 -37.5s-69.5 -58.833 -91.5 -101.5
s-35.667 -90.667 -41 -144c21.333 34.667 50.166 60.167 86.499 76.5s71.833 24.5 106.5 24.5c47.333 0 88.833 -10.167 124.5 -30.5zM394.502 90c27 14.667 48.333 34.667 64 60s23.5 53 23.5 83s-7.83301 57.5 -23.5 82.5s-37 44.833 -64 59.5s-56.167 22 -87.5 22
c-32 0 -61.333 -7.33301 -88 -22s-47.834 -34.5 -63.501 -59.5s-23.5 -52.5 -23.5 -82.5s7.83301 -57.667 23.5 -83s36.834 -45.333 63.501 -60s56 -22 88 -22c31.333 0 60.5 7.33301 87.5 22z" />
    <glyph glyph-name="seven" unicode="7" horiz-adv-x="576" 
d="M526 638l-322 -631h-82l325 631h-329c-18.667 0 -34.667 6.66699 -48 20s-20 29.333 -20 48h476v-68z" />
    <glyph glyph-name="eight" unicode="8" horiz-adv-x="591" 
d="M503 301.5c25.333 -31 38.001 -65.498 38.001 -103.498c0 -40.667 -11.667 -76 -35 -106s-53.833 -52.833 -91.5 -68.5s-77.167 -23.5 -118.5 -23.5c-42 0 -81.667 7.5 -119 22.5s-67.833 37.5 -91.5 67.5s-35.5 66 -35.5 108c0 37.333 12.833 71.166 38.5 101.499
s61.5 53.166 107.5 68.499c-40.667 12 -72.334 33.5 -95.001 64.5s-34 62.833 -34 95.5c0 38 11.5 71 34.5 99s52.167 49.333 87.5 64s71 22 107 22c36.667 0 72.667 -7 108 -21s64.333 -35 87 -63s34 -61.667 34 -101c0 -34.667 -11.667 -67 -35 -97s-55 -51 -95 -63
c46.667 -13.333 82.667 -35.5 108 -66.5zM164.501 454.502c17 -19.667 37.665 -34.333 61.998 -44s47.5 -14.5 69.5 -14.5c21.333 0 44.333 4.83301 69 14.5s45.5 24.167 62.5 43.5s25.5 42.666 25.5 69.999c0 25.333 -8.16699 47.333 -24.5 66
s-36.666 32.834 -60.999 42.501s-48.166 14.5 -71.499 14.5c-24 0 -48.167 -4.66699 -72.5 -14s-44.5 -23.333 -60.5 -42s-24 -40.667 -24 -66c0 -27.333 8.5 -50.833 25.5 -70.5zM374.499 80.5029c26.333 9.66699 48.335 24.499 66.002 44.499s26.5 44.333 26.5 73
s-8.66699 53.334 -26 74.001s-39.333 36.167 -66 46.5s-53 15.5 -79 15.5c-26.667 0 -53.167 -5 -79.5 -15s-48.333 -25.167 -66 -45.5s-26.5 -44.833 -26.5 -73.5c0 -30 8.66699 -55 26 -75s39.166 -34.833 65.499 -44.5s53.166 -14.5 80.499 -14.5
c26 0 52.167 4.83301 78.5 14.5z" />
    <glyph glyph-name="nine" unicode="9" horiz-adv-x="601" 
d="M540 505c7.33301 -30.667 11.002 -65.9971 11.002 -105.997c0 -77.333 -12.5 -146 -37.5 -206s-62 -107 -111 -141s-108.5 -51 -178.5 -51c-23.333 0 -50.833 3.5 -82.5 10.5s-57.834 17.5 -78.501 31.5v1c5.33301 13.333 13.666 23.666 24.999 30.999
s23.666 11 36.999 11c8 0 15.333 -1 22 -3c28 -8.66699 52.667 -13 74 -13c76 0 136.5 26.333 181.5 79s70.833 121 77.5 205c-21.333 -34.667 -51.166 -60.834 -89.499 -78.501s-74.5 -26.5 -108.5 -26.5c-47.333 0 -88.5 10.667 -123.5 32s-61.833 49.166 -80.5 83.499
s-28 70.833 -28 109.5c0 51.333 11.667 95 35 131s53.833 63.167 91.5 81.5s78.167 27.5 121.5 27.5c40 0 79.167 -10.667 117.5 -32s67.833 -50 88.5 -86c16.667 -30 28.667 -60.333 36 -91zM452.002 410.503c10 22.333 14.9971 45.5 14.9971 69.5
c0 33.333 -8.16699 62.5 -24.5 87.5s-37.666 44.167 -63.999 57.5s-54.166 20 -83.499 20c-30.667 0 -59.167 -6.5 -85.5 -19.5s-47.5 -32 -63.5 -57s-24 -55.167 -24 -90.5c0 -29.333 6.83301 -56.5 20.5 -81.5s33.5 -45.167 59.5 -60.5s56.333 -23 91 -23
c21.333 0 42.333 3.83301 63 11.5s39.334 18.167 56.001 31.5c16.667 14 30 32.167 40 54.5z" />
    <glyph glyph-name="question" unicode="?" horiz-adv-x="512" 
d="M363.5 689c31 -16.667 55.165 -39.001 72.498 -67.001s26 -58.333 26 -91c0 -32 -8 -60 -24 -84s-43 -55 -81 -93c-20.667 -20.667 -35.667 -36.5 -45 -47.5s-17.333 -24.333 -24 -40s-10 -34.5 -10 -56.5h-68c-0.666992 3.33301 -1 8.66602 -1 15.999
c0 32.667 6.5 59.667 19.5 81s31.5 43.666 55.5 66.999l14 15l20 21c22.667 22.667 39.834 42.834 51.501 60.501s17.5 37.834 17.5 60.501c0 32 -11.167 59 -33.5 81s-54.833 33 -97.5 33c-32.667 0 -60.167 -8.16699 -82.5 -24.5s-37.5 -38.5 -45.5 -66.5
c-4.66699 -18 -13.834 -32.167 -27.501 -42.5s-29.5 -15.166 -47.5 -14.499h-2c-0.666992 4.66699 -1 11.667 -1 21c0 37.333 9.33301 71 28 101s43.834 53.333 75.501 70s65.834 25 102.501 25c40.667 0 76.5 -8.33301 107.5 -25zM277.498 82.999
c9.66699 -10 14.499 -22.334 14.499 -37.001c0 -14 -5 -26.167 -15 -36.5s-22.333 -15.5 -37 -15.5c-14 0 -26 5.33301 -36 16s-15 23.334 -15 38.001c0 14 5.16699 25.833 15.5 35.5s22.5 14.5 36.5 14.5c14.667 0 26.834 -5 36.501 -15z" />
    <glyph glyph-name="A" unicode="A" horiz-adv-x="652" 
d="M569 -1l-89 179h-265l4 9c7.33301 14 18 27 32 39s33 18.333 57 19h138l-145 293l-267 -539h-80l348 699l347 -699h-80z" />
    <glyph glyph-name="B" unicode="B" horiz-adv-x="626" 
d="M498 321.5c20.667 -19.667 35.499 -41.001 44.499 -64.001s13.5 -44.833 13.5 -65.5c0 -64 -23.333 -112 -70 -144s-105.667 -48 -177 -48h-260v699h251c66.667 0 120.834 -15.333 162.501 -46s62.5 -74 62.5 -130c0 -26.667 -7 -55.167 -21 -85.5
s-42.333 -55.166 -85 -74.499c32 -8 58.333 -21.833 79 -41.5zM429.999 97.999c34 20.667 51 53.667 51 99c0 44.667 -18.333 76.834 -55 96.501s-79.667 29.5 -129 29.5h-7h-7c-32.667 0 -54 8.16699 -64 24.5s-15 29.833 -15 40.5h84c54.667 0 95.5 11.833 122.5 35.5
s40.5 54.167 40.5 91.5c0 39.333 -15 68.666 -45 87.999s-67.333 29 -112 29h-173v-565h190c45.333 0 85 10.333 119 31z" />
    <glyph glyph-name="C" unicode="C" horiz-adv-x="751" 
d="M648 120c-25.333 -35.333 -60.3281 -65.3359 -104.995 -90.0029s-98.334 -37 -161.001 -37c-64 0 -122.5 15 -175.5 45s-95 71.833 -126 125.5s-46.5 114.834 -46.5 183.501c0 69.333 15.833 131.333 47.5 186s74.5 97.334 128.5 128.001s112.667 46 176 46
c59.333 0 111 -11.833 155 -35.5s79 -53 105 -88s43.333 -70.5 52 -106.5l-2 -1c-8.66699 -3.33301 -17.334 -5 -26.001 -5c-13.333 0 -26 3.66699 -38 11s-21.667 17.333 -29 30c-20 34.667 -47.833 64.167 -83.5 88.5s-80.834 36.5 -135.501 36.5
c-49.333 0 -94.833 -12.167 -136.5 -36.5s-74.834 -58.166 -99.501 -101.499s-37 -92.333 -37 -147s11.833 -104 35.5 -148s56.334 -78.5 98.001 -103.5s88.5 -37.5 140.5 -37.5c73.333 0 128.666 19.5 165.999 58.5s63.666 81.833 78.999 128.5l71 -26
c-10 -34 -27.667 -68.667 -53 -104z" />
    <glyph glyph-name="D" unicode="D" horiz-adv-x="660" 
d="M428 653.5c56 -30.333 99.667 -72 131 -125s47 -112.167 47 -177.5c0 -68 -16.5 -128.667 -49.5 -182s-77.5 -94.833 -133.5 -124.5s-118 -44.5 -186 -44.5h-208v699h208c71.333 0 135 -15.167 191 -45.5zM388.5 105c45 24 79.833 57.167 104.5 99.5s37 90.5 37 144.5
c0 53.333 -12.167 101.333 -36.5 144s-58.833 76.167 -103.5 100.5s-97 36.5 -157 36.5h-131v-561h132c58 0 109.5 12 154.5 36z" />
    <glyph glyph-name="E" unicode="E" horiz-adv-x="561" 
d="M500 0h-441v699h438v-68h-365v-242h289c0 -18.667 -6.5 -34.667 -19.5 -48s-28.833 -20 -47.5 -20h-222v-253h368v-68z" />
    <glyph glyph-name="F" unicode="F" horiz-adv-x="583" 
d="M182 379h330c0 -18.667 -6.66699 -34.5 -20 -47.5s-29.333 -19.5 -48 -19.5h-262v-312h-73v699h433v-69h-360v-251z" />
    <glyph glyph-name="G" unicode="G" horiz-adv-x="776" 
d="M730 330c0 -28 -0.999023 -49.6709 -2.99902 -65.0039c-6.66699 -52 -24 -98.667 -52 -140s-65.333 -73.666 -112 -96.999s-100 -35 -160 -35c-69.333 0 -130.333 15.5 -183 46.5s-93.5 73.333 -122.5 127s-43.5 113.834 -43.5 180.501s15.333 127.334 46 182.001
s72.834 97.834 126.501 129.501s113.5 47.5 179.5 47.5c80.667 0 147.167 -19.667 199.5 -59s88.833 -89 109.5 -149c-10 -3.33301 -19.333 -5 -28 -5c-14 0 -27.167 3.16699 -39.5 9.5s-22.5 15.5 -30.5 27.5c-20.667 30.667 -48.667 56.334 -84 77.001
s-78.666 31 -129.999 31c-52 0 -98.833 -13.167 -140.5 -39.5s-74.167 -61.333 -97.5 -105s-35 -90.834 -35 -141.501c0 -53.333 11.167 -102 33.5 -146s54.333 -79 96 -105s90.167 -39 145.5 -39c41.333 0 80.166 8.16699 116.499 24.5s66.166 39.833 89.499 70.5
s36.666 67 39.999 109l1 23h-137c-18.667 0 -34.667 6.66699 -48 20s-20 29.333 -20 48h283v-27z" />
    <glyph glyph-name="H" unicode="H" horiz-adv-x="644" 
d="M594 73c0 -20 -7.16699 -37.167 -21.5 -51.5s-31.833 -21.5 -52.5 -21.5v320h-398v-320h-73v699c20 0 37.167 -7.16699 51.5 -21.5s21.5 -31.5 21.5 -51.5v-236h398v309h74v-626z" />
    <glyph glyph-name="I" unicode="I" horiz-adv-x="281" 
d="M99 699h73v-699h-73v699z" />
    <glyph glyph-name="J" unicode="J" horiz-adv-x="571" 
d="M418.5 677.5c14.333 14.333 31.5 21.499 51.5 21.499v-481c0 -42.667 -9 -81.167 -27 -115.5s-43 -61.166 -75 -80.499s-68.333 -29 -109 -29c-66.667 0 -119.834 20.167 -159.501 60.5s-59.5 94.5 -59.5 162.5v69h73v-66c0 -51.333 14 -90.333 42 -117
s61.667 -40 101 -40c26.667 0 50.834 6.83301 72.501 20.5s38.5 32.167 50.5 55.5s18 49 18 77v411c0 20 7.16699 37.167 21.5 51.5z" />
    <glyph glyph-name="K" unicode="K" 
d="M584 0c-22 0 -43.168 4.33301 -63.501 13s-38.166 21 -53.499 37l-279 287h-6v-337h-73v699c20 0 37.167 -7.16699 51.5 -21.5s21.5 -31.5 21.5 -51.5v-236h5l313 309h103l-343 -335l359 -364h-35z" />
    <glyph glyph-name="L" unicode="L" horiz-adv-x="514" 
d="M493 0h-404v699c20 0 37.167 -7.16699 51.5 -21.5s21.5 -31.5 21.5 -51.5v-557h331v-69z" />
    <glyph glyph-name="M" unicode="M" horiz-adv-x="947" 
d="M750.5 672.5c26.333 17.667 55.502 26.5 87.502 26.5v-699c-20 0 -37 7 -51 21s-21 31 -21 51v527h-1l-291 -599l-293 595v-523c0 -20 -7 -37 -21 -51s-31 -21 -51 -21v699c31.333 0 60.166 -8.66699 86.499 -26s45.833 -40.333 58.5 -69l220 -447l217 445
c13.333 29.333 33.166 52.833 59.499 70.5z" />
    <glyph glyph-name="N" unicode="N" horiz-adv-x="748" 
d="M617.5 678c14.333 -14 21.499 -31.001 21.499 -51.001v-627c-24.667 0 -48 5.66699 -70 17s-40 27 -54 47l-374 532v-596c-20 0 -37 7 -51 21s-21 31 -21 51v627c26.667 0 51.834 -6.16699 75.501 -18.5s43.167 -29.166 58.5 -50.499l363 -515v584
c20 0 37.167 -7 51.5 -21z" />
    <glyph glyph-name="O" unicode="O" horiz-adv-x="801" 
d="M575 659c53.333 -31.333 95.333 -74 126 -128s46 -113.667 46 -179c0 -66 -15.333 -126.5 -46 -181.5s-72.834 -98.333 -126.501 -130s-113.834 -47.5 -180.501 -47.5c-65.333 0 -124.666 15.667 -177.999 47s-95.333 74 -126 128s-46 113.667 -46 179
c0 66 15.333 126.5 46 181.5s72.834 98.333 126.501 130s113.834 47.5 180.501 47.5c65.333 0 124.666 -15.667 177.999 -47zM537.5 100.5c41.667 25.667 74.334 60.168 98.001 103.501s35.5 91 35.5 143s-11.833 100.333 -35.5 145s-56.667 80.167 -99 106.5
s-89.833 39.5 -142.5 39.5s-99.834 -12.833 -141.501 -38.5s-74.167 -60.334 -97.5 -104.001s-35 -91.5 -35 -143.5c0 -52.667 11.833 -101.167 35.5 -145.5s56.5 -79.5 98.5 -105.5s89.667 -39 143 -39c52 0 98.833 12.833 140.5 38.5z" />
    <glyph glyph-name="P" unicode="P" horiz-adv-x="623" 
d="M479.5 670c37 -19.333 64.333 -44.835 82 -76.502s26.5 -66.5 26.5 -104.5c0 -40 -9.66699 -76.167 -29 -108.5s-48 -58.166 -86 -77.499s-83.667 -29.333 -137 -30c-28.667 0.666992 -48 8.33398 -58 23.001s-15 28.667 -15 42v3h70c40.667 0 74.5 7 101.5 21
s46.833 32 59.5 54s19 45.667 19 71c0 40 -13.667 73.833 -41 101.5s-72.333 41.5 -135 41.5h-155v-630h-73v699h234c54 0 99.5 -9.66699 136.5 -29z" />
    <glyph glyph-name="Q" unicode="Q" horiz-adv-x="826" 
d="M754 13.5c-13.333 -13.667 -29.6689 -20.501 -49.002 -20.501h-300h-1c-65.333 0 -124.666 15.667 -177.999 47s-95.333 74 -126 128s-46 113.667 -46 179c0 66 15.333 126.5 46 181.5s72.834 98.333 126.501 130s113.834 47.5 180.501 47.5
c65.333 0 124.666 -15.667 177.999 -47s95.333 -74 126 -128s46 -113.667 46 -179c0 -59.333 -12.667 -114.166 -38 -164.499s-60 -92.166 -104 -125.499h159c0 -18.667 -6.66699 -34.834 -20 -48.501zM547.497 100.499c41.667 25.667 74.334 60.168 98.001 103.501
s35.5 91 35.5 143s-11.833 100.333 -35.5 145s-56.667 80.167 -99 106.5s-89.833 39.5 -142.5 39.5s-99.834 -12.833 -141.501 -38.5s-74.167 -60.334 -97.5 -104.001s-35 -91.5 -35 -143.5c0 -52.667 11.833 -101.167 35.5 -145.5s56.5 -79.5 98.5 -105.5
s89.667 -39 143 -39c52 0 98.833 12.833 140.5 38.5z" />
    <glyph glyph-name="R" unicode="R" horiz-adv-x="619" 
d="M501 19c-24.667 12.667 -45.3359 30.334 -62.0029 53.001l-151 207l-18 24c-4 5.33301 -6 11 -6 17c0 8 2.83301 15 8.5 21s12.834 9 21.501 9h11c58.667 0 102.834 14 132.501 42s44.5 61.667 44.5 101s-13.833 72 -41.5 98s-72.5 39 -134.5 39h-164v-630h-73v699h242
c54.667 0 100.334 -9.16699 137.001 -27.5s63.834 -42.833 81.501 -73.5s26.5 -64.667 26.5 -102c0 -57.333 -18 -103.333 -54 -138s-81.667 -55.334 -137 -62.001l216 -296c-28.667 -0 -55.334 6.33301 -80.001 19z" />
    <glyph glyph-name="S" unicode="S" horiz-adv-x="554" 
d="M484 261.5c9.33301 -23.667 13.9951 -44.833 13.9951 -63.5c0 -41.333 -10.167 -77.5 -30.5 -108.5s-48.166 -54.833 -83.499 -71.5s-75 -25 -119 -25c-43.333 0 -83.166 9.5 -119.499 28.5s-65.666 43.667 -87.999 74s-35.166 62.166 -38.499 95.499
c6.66699 2 13.667 3 21 3c14 0 27.333 -3.83301 40 -11.5s22.667 -17.834 30 -30.501c16 -27.333 38 -49.166 66 -65.499s57.667 -24.5 89 -24.5c43.333 0 80.5 11 111.5 33s46.5 53.333 46.5 94c0 36.667 -12.667 64.834 -38 84.501s-54.333 32.834 -87 39.501l-93 19
c-20 4 -40.5 10.833 -61.5 20.5s-39.833 22.5 -56.5 38.5c-32.667 30.667 -49 71 -49 121c0 38.667 10.167 72.667 30.5 102s47.5 52.166 81.5 68.499s70.333 24.5 109 24.5c47.333 0 87.5 -8.33301 120.5 -25s58.333 -37.834 76 -63.501s29.167 -52.167 34.5 -79.5l-5 -1
c-8 -1.33301 -14.333 -2 -19 -2c-13.333 0 -25.666 2.83301 -36.999 8.5s-20.666 13.834 -27.999 24.501c-34 47.333 -81.333 71 -142 71c-6 0 -15.667 -0.666992 -29 -2c-32.667 -3.33301 -60.667 -16.666 -84 -39.999s-35 -51.333 -35 -84
c0 -26.667 8.5 -49.834 25.5 -69.501s42.5 -32.834 76.5 -39.501l89 -17c28 -5.33301 53.167 -12.666 75.5 -21.999s42.5 -22.333 60.5 -39c21.333 -20 36.666 -41.833 45.999 -65.5z" />
    <glyph glyph-name="T" unicode="T" horiz-adv-x="417" 
d="M422 679c13.333 -13.333 20 -29.668 20 -49.001h-233v-630h-74v630h-165c-19.333 0 -35.666 6.83301 -48.999 20.5s-20 29.834 -20 48.501h472c19.333 0 35.666 -6.66699 48.999 -20z" />
    <glyph glyph-name="U" unicode="U" horiz-adv-x="685" 
d="M553.5 677.5c14.333 14.333 31.5 21.5 51.5 21.5v-426c0 -88.667 -23 -157.5 -69 -206.5s-110.333 -73.5 -193 -73.5c-83.333 0 -148 25 -194 75s-69 117 -69 201v430c20 0 37.167 -7.16699 51.5 -21.5s21.5 -31.5 21.5 -51.5v-354c0 -72 17.5 -125 52.5 -159
s81.5 -51 139.5 -51c60 0 106.167 18 138.5 54s48.5 86.667 48.5 152v358c0 20 7.16699 37.167 21.5 51.5z" />
    <glyph glyph-name="V" unicode="V" horiz-adv-x="691" 
d="M602 679c20 13.333 42 20 66 20l-323 -699l-322 699c24.667 0 47.167 -7 67.5 -21s34.833 -32.333 43.5 -55l211 -457l214 459c8.66699 22.667 23 40.667 43 54z" />
    <glyph glyph-name="W" unicode="W" horiz-adv-x="1030" 
d="M943.5 679.5c17.667 13 37.499 19.5 59.499 19.5l-259 -699l-229 536l-225 -536l-262 699c22.667 0 43.167 -6.83301 61.5 -20.5s30.833 -31.167 37.5 -52.5l165 -446l223 519l226 -519l166 448c6.66699 21.333 18.834 38.5 36.501 51.5z" />
    <glyph glyph-name="X" unicode="X" horiz-adv-x="640" 
d="M555.5 18.5c-24.333 12.333 -44.501 29.167 -60.501 50.5l-175 236l-226 -305h-86l268 358l-256 341c27.333 0 52.833 -6 76.5 -18s43.834 -29 60.501 -51l164 -219l214 288h85l-256 -340l268 -359c-26.667 0 -52.167 6.16699 -76.5 18.5z" />
    <glyph glyph-name="Y" unicode="Y" horiz-adv-x="667" 
d="M642 699l-271.001 -404v-221c0 -20.667 -7.33301 -38.167 -22 -52.5s-32 -21.5 -52 -21.5v295l-271 404c27.333 0 53.333 -6.66699 78 -20s44.334 -31.333 59.001 -54l172 -260l223 334h84z" />
    <glyph glyph-name="Z" unicode="Z" horiz-adv-x="663" 
d="M577 48c13.333 -13.333 20 -29.333 20 -48h-561l442 632h-348c-18.667 0 -34.5 6.5 -47.5 19.5s-19.5 28.833 -19.5 47.5h557l-443 -631h352c18.667 0 34.667 -6.66699 48 -20z" />
    <glyph glyph-name="bracketleft" unicode="[" horiz-adv-x="385" 
d="M330 793c-12 -12 -26.333 -18 -43 -18h-116v-756h116c16.667 0 31 -6 43 -18s18 -26.333 18 -43h-245v878h245c0 -16.667 -6 -31 -18 -43z" />
    <glyph glyph-name="bracketright" unicode="]" horiz-adv-x="385" 
d="M214 775h-116c-16.667 0 -31 6 -43 18s-18 26.333 -18 43h245v-878h-245c0 16.667 6 31 18 43s26.333 18 43 18h116v756z" />
    <glyph glyph-name="underscore" unicode="_" horiz-adv-x="477" 
d="M459.5 -112.5c-11.667 -11.667 -25.5 -17.5 -41.5 -17.5h-418c0 16.667 5.66699 30.667 17 42s25.333 17 42 17h418c0 -16 -5.83301 -29.833 -17.5 -41.5z" />
    <glyph glyph-name="a" unicode="a" horiz-adv-x="521" 
d="M436.5 355c2.33301 -15.333 3.49902 -28.332 3.49902 -38.999v-308c-18.667 0 -34.667 6.66699 -48 20s-20 29.333 -20 48v16c-39.333 -61.333 -93 -92 -161 -92c-48 0 -86.667 13.167 -116 39.5s-44 59.833 -44 100.5v6c0 47.333 19 82 57 104s81.667 33 131 33h70
c0 -3.33301 -1.16699 -9.33301 -3.5 -18s-7.66602 -17.334 -15.999 -26.001s-20.166 -13 -35.499 -13h-16c-31.333 0 -58.666 -6.16699 -81.999 -18.5s-35 -32.833 -35 -61.5c0 -26 9.66699 -46.5 29 -61.5s43.666 -22.5 72.999 -22.5c42.667 0 78.167 13.667 106.5 41
s42.5 62.666 42.5 105.999v106c0 38.667 -10.333 67.667 -31 87s-51 29 -91 29c-31.333 0 -56.833 -7.16699 -76.5 -21.5s-33.834 -32.5 -42.501 -54.5l-66 21c12 30 33.667 57 65 81s72 36 122 36c46.667 0 84.167 -9 112.5 -27s48.833 -41.667 61.5 -71
c4.66699 -11.333 8.16699 -24.666 10.5 -39.999z" />
    <glyph glyph-name="b" unicode="b" 
d="M458 457c34 -23.333 60.499 -53.833 79.499 -91.5s28.5 -77.5 28.5 -119.5c0 -42.667 -9.33301 -83 -28 -121s-45.167 -68.333 -79.5 -91s-73.166 -34 -116.499 -34c-79.333 0 -141 35.667 -185 107v-100h-69v727c19.333 0 35.833 -6.83301 49.5 -20.5
s20.5 -30.167 20.5 -49.5v-283c22 34 47.667 61 77 81s65 30 107 30c43.333 0 82 -11.667 116 -35zM415.999 86.5c25.333 16.333 44.666 38.334 57.999 66.001s20 58.5 20 92.5c0 33.333 -6.66699 64.166 -20 92.499s-32.666 50.833 -57.999 67.5s-55 25 -89 25
c-32 0 -61 -8.5 -87 -25.5s-46.333 -39.5 -61 -67.5s-22 -58 -22 -90c0 -32.667 7.16699 -63.167 21.5 -91.5s34.5 -51 60.5 -68s55.333 -25.5 88 -25.5c34 0 63.667 8.16699 89 24.5z" />
    <glyph glyph-name="c" unicode="c" horiz-adv-x="559" 
d="M475 73.5c-20 -23.667 -45.6689 -43 -77.002 -58s-66.666 -22.5 -105.999 -22.5c-45.333 0 -86.5 10.5 -123.5 31.5s-66.167 50.167 -87.5 87.5s-32 79.333 -32 126s11.167 89 33.5 127s52.166 67.667 89.499 89s78.333 32 123 32c36 0 69.5 -7 100.5 -21
s56.833 -32.667 77.5 -56s34.334 -48.333 41.001 -75l-2 -1c-8 -2 -15.667 -3 -23 -3c-12.667 0 -24.667 2.66699 -36 8s-21 13.333 -29 24c-14 18 -32 32.833 -54 44.5s-47.667 17.5 -77 17.5c-33.333 0 -63.166 -8.16699 -89.499 -24.5s-46.833 -38.5 -61.5 -66.5
s-22 -58.333 -22 -91c0 -33.333 7 -64.333 21 -93s34.167 -51.667 60.5 -69s56.833 -26 91.5 -26c45.333 0 80.333 12 105 36s42.667 50.333 54 79l65 -22c-8 -25.333 -22 -49.833 -42 -73.5z" />
    <glyph glyph-name="d" unicode="d" 
d="M478.5 714c13.667 13.333 29.834 20.001 48.501 20.001v-727h-68v102c-44 -72.667 -106 -109 -186 -109c-44 0 -82.833 11.333 -116.5 34s-59.834 52.834 -78.501 90.501s-28 78.167 -28 121.5c0 42 9.33301 81.833 28 119.5s45 68.167 79 91.5s72.667 35 116 35
c42 0 77.833 -9.83301 107.5 -29.5s55.5 -45.834 77.5 -78.501v281c0 19.333 6.83301 35.666 20.5 48.999zM376 87.501c26 17 46.333 39.667 61 68s22 58.833 22 91.5c0 31.333 -7.5 61.166 -22.5 89.499s-35.5 51 -61.5 68s-55 25.5 -87 25.5
c-34 0 -63.667 -8.16699 -89 -24.5s-44.666 -38.666 -57.999 -66.999s-20 -59.5 -20 -93.5c0 -33.333 6.66699 -64 20 -92s32.666 -50.167 57.999 -66.5s55 -24.5 89 -24.5c32.667 0 62 8.5 88 25.5z" />
    <glyph glyph-name="e" unicode="e" horiz-adv-x="552" 
d="M436 284c-4.66699 44.667 -20.4961 80.5 -47.4961 107.5s-62.833 40.5 -107.5 40.5c-26.667 0 -51.5 -6.66699 -74.5 -20s-42 -31.166 -57 -53.499s-24.5 -46.833 -28.5 -73.5c-1.33301 -2.66699 -2 -9.66699 -2 -21v-1c0 -14.667 0.333008 -27.334 1 -38.001
c1.33301 -30.667 9.66602 -58.334 24.999 -83.001s35.666 -44.167 60.999 -58.5s53.333 -21.5 84 -21.5c32 0 60 7 84 21s42.333 34 55 60l59 -28c-18 -36.667 -44.667 -65 -80 -85s-74.333 -30 -117 -30c-45.333 0 -86.5 11 -123.5 33s-66 51.833 -87 89.5
s-31.5 79.167 -31.5 124.5c0 43.333 10.167 83.833 30.5 121.5s48.166 67.834 83.499 90.501s74.666 34 117.999 34c48 0 88.833 -10.5 122.5 -31.5s59.167 -50.167 76.5 -87.5s26 -79.333 26 -126c0 -10.667 -0.333008 -18.334 -1 -23.001h-225
c-21.333 0 -36 5.83301 -44 17.5s-12.333 23.834 -13 36.501v5h213z" />
    <glyph glyph-name="f" unicode="f" horiz-adv-x="327" 
d="M209.5 645c-15.667 -15.333 -23.5 -41.333 -23.5 -78v-90h125c0 -16.667 -5.83301 -31 -17.5 -43s-26.167 -18 -43.5 -18h-64v-416h-70v416h-91v61h91v88c0 53.333 13.333 94 40 122s62 42 106 42c18.667 0 36.334 -2.66699 53.001 -8v-59c-12.667 4 -29.334 6 -50.001 6
c-21.333 0 -39.833 -7.66699 -55.5 -23z" />
    <glyph glyph-name="g" unicode="g" 
d="M479.5 459c13.667 13.333 29.833 20.0029 48.5 20.0029v-479c0 -75.333 -21.5 -133.5 -64.5 -174.5s-101.167 -61.5 -174.5 -61.5v61c49.333 0 89.833 14.167 121.5 42.5s47.5 71.833 47.5 130.5v110c-44.667 -72 -106.334 -108 -185.001 -108c-44 0 -83 11 -117 33
s-60.167 51.667 -78.5 89s-27.5 77.666 -27.5 120.999c0 42 9.33301 81.667 28 119s45 67.5 79 90.5s72.667 34.5 116 34.5c42.667 0 78.834 -9.83301 108.501 -29.5s55.5 -45.834 77.5 -78.501v31c0 19.333 6.83301 35.666 20.5 48.999zM375.499 85.5029
c25.667 16.333 46.001 38.5 61.001 66.5s22.5 58.333 22.5 91c0 33.333 -7.5 64 -22.5 92s-35.333 50.167 -61 66.5s-53.834 24.5 -84.501 24.5c-23.333 0 -45.333 -3.83301 -66 -11.5s-38.334 -19.167 -53.001 -34.5c-16 -16 -28.167 -36.167 -36.5 -60.5
s-12.5 -49.833 -12.5 -76.5c0 -63.333 20 -112 60 -146c14 -12 30.5 -21 49.5 -27s38.5 -9 58.5 -9c30.667 0 58.834 8.16699 84.501 24.5z" />
    <glyph glyph-name="h" unicode="h" horiz-adv-x="582" 
d="M454 433.5c31.333 -35 47.002 -81.167 47.002 -138.5v-295c-19.333 -0 -35.666 6.83301 -48.999 20.5s-20 30.167 -20 49.5v208c0 44 -11.333 79 -34 105s-55.334 39 -98.001 39c-41.333 0 -75.333 -14.5 -102 -43.5s-40 -64.833 -40 -107.5v-271h-70v727
c19.333 0 35.833 -6.83301 49.5 -20.5s20.5 -30.167 20.5 -49.5v-266c37.333 63.333 91.666 95 162.999 95c57.333 0 101.666 -17.5 132.999 -52.5z" />
    <glyph glyph-name="i" unicode="i" horiz-adv-x="253" 
d="M167 609c-11.333 -10 -24.667 -14.334 -40 -13.001c-12.667 0.666992 -23.834 5.83398 -33.501 15.501s-14.5 21.167 -14.5 34.5c0 14.667 5 27.334 15 38.001s22 16 36 16c2.66699 0 7.33398 -0.666992 14.001 -2c11.333 -2.66699 20.833 -8.83398 28.5 -18.501
s11.5 -20.5 11.5 -32.5c0 -15.333 -5.66699 -28 -17 -38zM165.999 476.999v-406c0 -19.333 -6.83301 -36 -20.5 -50s-30.167 -21 -49.5 -21v477h70z" />
    <glyph glyph-name="j" unicode="j" horiz-adv-x="240" 
d="M156 611c-10 -10 -22.333 -14.999 -37 -14.999s-27.167 5.16699 -37.5 15.5s-15.5 22.833 -15.5 37.5s5 27 15 37s22 15 36 15s26.5 -5.33301 37.5 -16s16.5 -23.334 16.5 -38.001c0 -14 -5 -26 -15 -36zM103 456.501c13.333 13.667 29.668 20.5 49.001 20.5v-579
c0 -44 -11.333 -77.667 -34 -101s-56.334 -35 -101.001 -35c-14 0 -28.667 2.33301 -44 7v58c10 -2.66699 21.333 -4 34 -4c24.667 0 43.5 6.66699 56.5 20s19.5 32.333 19.5 57v507c0 19.333 6.66699 35.833 20 49.5z" />
    <glyph glyph-name="k" unicode="k" horiz-adv-x="496" 
d="M405.5 18c-29 12 -54.5 29 -76.5 51l-169 169h-2v-238h-70v728c19.333 0 35.833 -6.83301 49.5 -20.5s20.5 -30.167 20.5 -49.5v-375l226 194h100l-251 -215l262 -262c-30.667 0 -60.5 6 -89.5 18z" />
    <glyph glyph-name="l" unicode="l" horiz-adv-x="247" 
d="M88 728h71v-728h-71v728z" />
    <glyph glyph-name="m" unicode="m" horiz-adv-x="889" 
d="M761 432.5c30.667 -35 46 -80.834 46 -137.501v-295c-19.333 0 -35.833 6.83301 -49.5 20.5s-20.5 30.167 -20.5 49.5v208c0 42.667 -10.167 77.167 -30.5 103.5s-51.166 39.5 -92.499 39.5c-40.667 0 -72.834 -14.167 -96.501 -42.5s-35.5 -63.166 -35.5 -104.499v-205
c0 -18.667 -6.66699 -34.834 -20 -48.501s-29.666 -20.5 -48.999 -20.5v280c0 41.333 -10.333 75.333 -31 102s-51.334 40 -92.001 40c-26.667 0 -50 -7 -70 -21s-35.333 -32.5 -46 -55.5s-16 -47.833 -16 -74.5v-201c0 -19.333 -6.83301 -35.833 -20.5 -49.5
s-30.167 -20.5 -49.5 -20.5v477h69v-83c20 30.667 42 53.667 66 69s53 23 87 23c35.333 0 66 -8.16699 92 -24.5s46.333 -40.166 61 -71.499c20.667 31.333 44.667 55 72 71s59.333 24 96 24c56 0 99.333 -17.5 130 -52.5z" />
    <glyph glyph-name="n" unicode="n" horiz-adv-x="582" 
d="M454 433.5c31.333 -35 47 -81.167 47 -138.5v-295c-19.333 -0 -35.666 6.83301 -48.999 20.5s-20 30.167 -20 49.5v208c0 44 -11.333 79 -34 105s-55.334 39 -98.001 39c-41.333 0 -75.333 -14.5 -102 -43.5s-40 -64.833 -40 -107.5v-201
c0 -19.333 -6.83301 -35.833 -20.5 -49.5s-30.167 -20.5 -49.5 -20.5v477h69v-88c36.667 64.667 91.334 97 164.001 97c57.333 0 101.666 -17.5 132.999 -52.5z" />
    <glyph glyph-name="o" unicode="o" horiz-adv-x="591" 
d="M420.5 453.5c37.667 -21.667 67.334 -51.334 89.001 -89.001s32.5 -78.834 32.5 -123.501c0 -46 -10.833 -88 -32.5 -126s-51.334 -67.833 -89.001 -89.5s-79.5 -32.5 -125.5 -32.5c-45.333 0 -86.833 11 -124.5 33s-67.334 51.667 -89.001 89s-32.5 78.333 -32.5 123
c0 46.667 10.833 88.834 32.5 126.501s51.334 67.334 89.001 89.001s79.5 32.5 125.5 32.5c45.333 0 86.833 -10.833 124.5 -32.5zM385.5 79c26.333 16.667 47.002 38.999 62.002 66.999s22.5 58.667 22.5 92c0 32.667 -7.5 63.334 -22.5 92.001s-35.833 51.667 -62.5 69
s-56.667 26 -90 26c-34 0 -64.333 -8.33301 -91 -25s-47.334 -39 -62.001 -67s-22 -58.667 -22 -92s7.5 -64.333 22.5 -93s35.833 -51.5 62.5 -68.5s57 -25.5 91 -25.5c33.333 0 63.166 8.33301 89.499 25z" />
    <glyph glyph-name="p" unicode="p" 
d="M458 449c34 -23.333 60.498 -53.833 79.498 -91.5s28.5 -77.5 28.5 -119.5c0 -42.667 -9.33301 -83 -28 -121s-45.167 -68.333 -79.5 -91s-73.166 -34 -116.499 -34c-79.333 0 -140.666 35 -183.999 105v-263c0 -19.333 -6.83301 -35.833 -20.5 -49.5
s-30.167 -20.5 -49.5 -20.5v712h69v-104c47.333 74.667 109 112 185 112c43.333 0 82 -11.667 116 -35zM415.998 77.5c25.333 16.333 44.666 38.335 57.999 66.002s20 58.5 20 92.5c0 33.333 -6.66699 64.166 -20 92.499s-32.666 51 -57.999 68s-55 25.5 -89 25.5
c-32 0 -61 -8.5 -87 -25.5s-46.333 -39.5 -61 -67.5s-22 -58 -22 -90c0 -32.667 7.16699 -63.334 21.5 -92.001s34.5 -51.5 60.5 -68.5s55.333 -25.5 88 -25.5c34 0 63.667 8.16699 89 24.5z" />
    <glyph glyph-name="q" unicode="q" 
d="M527 -236c-18.667 0 -34.832 6.66699 -48.499 20s-20.5 29.666 -20.5 48.999v266c-43.333 -71.333 -105 -107 -185 -107c-44 0 -82.833 11.333 -116.5 34s-59.834 52.834 -78.501 90.501s-28 78.167 -28 121.5c0 42 9.33301 81.833 28 119.5s45 68 79 91
s72.667 34.5 116 34.5c42.667 0 78.667 -9.83301 108 -29.5s55.333 -46.167 78 -79.5v101h68v-711zM375.502 78.5c26.333 17 46.835 39.833 61.502 68.5s22 59.334 22 92.001c0 31.333 -7.5 61.166 -22.5 89.499s-35.5 51 -61.5 68s-55.333 25.5 -88 25.5
c-34 0 -63.5 -8.16699 -88.5 -24.5s-44.167 -38.666 -57.5 -66.999s-20 -59.833 -20 -94.5c0 -33.333 6.66699 -63.833 20 -91.5s32.666 -49.834 57.999 -66.501s54.666 -25 87.999 -25c32.667 0 62.167 8.5 88.5 25.5z" />
    <glyph glyph-name="r" unicode="r" horiz-adv-x="351" 
d="M334 483l-0.000976562 -74.001c-12 1.33301 -21 2 -27 2c-52 0 -89.833 -17.333 -113.5 -52s-35.5 -76.667 -35.5 -126v-163c0 -19.333 -6.83301 -35.833 -20.5 -49.5s-30.167 -20.5 -49.5 -20.5v477h69v-95c16.667 34.667 38.834 60.334 66.501 77.001s56.5 25 86.5 25
c12 0 20 -0.333008 24 -1z" />
    <glyph glyph-name="s" unicode="s" horiz-adv-x="449" 
d="M352.5 231.5c30.333 -23 45.501 -54.499 45.501 -94.499c0 -28.667 -7.66699 -53.834 -23 -75.501s-35.833 -38.5 -61.5 -50.5s-53.834 -18 -84.501 -18c-57.333 0 -100.333 14.5 -129 43.5s-46 61.5 -52 97.5c8 1.33301 14 2 18 2c13.333 0 26 -3 38 -9
s21.667 -14.333 29 -25c22 -32 53.667 -48 95 -48c27.333 0 50.666 7 69.999 21s29 33 29 57c0 26 -10.333 44.5 -31 55.5s-47.334 18.833 -80.001 23.5c-47.333 6.66699 -85.333 19.834 -114 39.501s-43 50.834 -43 93.501c0 28.667 7.66699 53.667 23 75
s35.333 37.833 60 49.5s50.334 17.5 77.001 17.5c38.667 0 70.5 -7.16699 95.5 -21.5s43.5 -31.333 55.5 -51s19.333 -38.834 22 -57.501l-4 -1c-8 -1.33301 -13.667 -2 -17 -2c-12 0 -23.667 3 -35 9s-21 14 -29 24c-21.333 26 -50.666 39 -87.999 39
c-26 0 -47.667 -7.5 -65 -22.5s-26 -32.833 -26 -53.5c0 -26.667 10.333 -44.834 31 -54.501s48.334 -16.5 83.001 -20.5c43.333 -5.33301 80.166 -19.5 110.499 -42.5z" />
    <glyph glyph-name="t" unicode="t" horiz-adv-x="347" 
d="M260 62c18 0 32.334 0.999023 43.001 2.99902v-58c-7.33301 -2 -16.333 -3.66699 -27 -5s-20 -2 -28 -2c-90 0 -135 42.333 -135 127v292h-88v61h88v138c19.333 0 35.666 -6.66699 48.999 -20s20 -29.666 20 -48.999v-69h121c0 -16.667 -6 -31 -18 -43
s-26.667 -18 -44 -18h-59v-290c0 -44.667 26 -67 78 -67z" />
    <glyph glyph-name="u" unicode="u" horiz-adv-x="583" 
d="M445.5 459c13.667 13.333 29.832 19.999 48.499 19.999v-477h-68v87c-37.333 -64 -92 -96 -164 -96c-57.333 0 -101.666 17.5 -132.999 52.5s-47 81.167 -47 138.5v295c19.333 0 35.666 -6.66699 48.999 -20s20 -29.666 20 -48.999v-209c0 -44 11.333 -79.167 34 -105.5
s55.334 -39.5 98.001 -39.5c41.333 0 75.333 14.333 102 43s40 64.334 40 107.001v204c0 19.333 6.83301 35.666 20.5 48.999z" />
    <glyph glyph-name="v" unicode="v" horiz-adv-x="526" 
d="M440.5 459c19 12 39.833 17.999 62.5 17.999l-240 -477l-240 477c23.333 0 45 -6.16699 65 -18.5s35 -29.166 45 -50.499l130 -268l133 270c10.667 20.667 25.5 37 44.5 49z" />
    <glyph glyph-name="w" unicode="w" horiz-adv-x="779" 
d="M693.5 458.5c18.333 12.333 38.5 18.501 60.5 18.501l-199 -477l-166 319l-165 -319l-199 477c22.667 0 43.167 -6.33301 61.5 -19s31.833 -29.334 40.5 -50.001l101 -253l161 322l161 -322l104 255c8 20 21.167 36.167 39.5 48.5z" />
    <glyph glyph-name="x" unicode="x" horiz-adv-x="496" 
d="M403.5 17.5c-23.667 11.667 -43.166 27.833 -58.499 48.5l-97 128l-149 -194h-80l188 242l-182 235c26 0 50.667 -5.66699 74 -17s42.666 -27.333 57.999 -48l91 -120l142 185h80l-180 -234l188 -243c-26 -0 -50.833 5.83301 -74.5 17.5z" />
    <glyph glyph-name="y" unicode="y" horiz-adv-x="535" 
d="M221 -168c-9.33301 -20.667 -23.6689 -37.167 -43.002 -49.5s-40.333 -18.5 -63 -18.5l123 267l-217 445c24.667 0 47.334 -6.66699 68.001 -20s36.334 -31 47.001 -53l140 -296l166 369h75z" />
    <glyph glyph-name="z" unicode="z" horiz-adv-x="528" 
d="M461.5 42.5c11.667 -11.667 17.5 -25.834 17.5 -42.501h-437l310 417h-238c-16.667 0 -30.834 5.83301 -42.501 17.5s-17.5 25.834 -17.5 42.501h429l-308 -417h244c16.667 0 30.834 -5.83301 42.501 -17.5z" />
    <glyph glyph-name="bar" unicode="|" horiz-adv-x="168" 
d="M70 783c13.333 13.333 29.333 20 48 20v-832c0 -18.667 -6.66699 -34.667 -20 -48s-29.333 -20 -48 -20v832c0 18.667 6.66699 34.667 20 48z" />
    <glyph glyph-name="Ccedilla" unicode="&#xc7;" horiz-adv-x="751" 
d="M648 120c-25.333 -35.333 -60.3281 -65.3359 -104.995 -90.0029s-98.334 -37 -161.001 -37c-64 0 -122.5 15 -175.5 45s-95 71.833 -126 125.5s-46.5 114.834 -46.5 183.501c0 69.333 15.833 131.333 47.5 186s74.5 97.334 128.5 128.001s112.667 46 176 46
c59.333 0 111 -11.833 155 -35.5s79 -53 105 -88s43.333 -70.5 52 -106.5l-2 -1c-8.66699 -3.33301 -17.334 -5 -26.001 -5c-13.333 0 -26 3.66699 -38 11s-21.667 17.333 -29 30c-20 34.667 -47.833 64.167 -83.5 88.5s-80.834 36.5 -135.501 36.5
c-49.333 0 -94.833 -12.167 -136.5 -36.5s-74.834 -58.166 -99.501 -101.499s-37 -92.333 -37 -147s11.833 -104 35.5 -148s56.334 -78.5 98.001 -103.5s88.5 -37.5 140.5 -37.5c73.333 0 128.666 19.5 165.999 58.5s63.666 81.833 78.999 128.5l71 -26
c-10 -34 -27.667 -68.667 -53 -104zM487.505 -135.503c-14.333 -14.333 -31.833 -21.5 -52.5 -21.5h-181c0 20.667 7.16699 38.167 21.5 52.5s31.833 21.5 52.5 21.5h181c0 -20.667 -7.16699 -38.167 -21.5 -52.5z" />
    <glyph glyph-name="Odieresis" unicode="&#xd6;" horiz-adv-x="801" 
d="M460.5 811.5c-14.333 -14.333 -31.833 -21.5 -52.5 -21.5h-101c0 20.667 7.16699 38.167 21.5 52.5s31.833 21.5 52.5 21.5h101c0 -20.667 -7.16699 -38.167 -21.5 -52.5zM575 659c53.333 -31.333 95.333 -74 126 -128s46 -113.667 46 -179
c0 -66 -15.333 -126.5 -46 -181.5s-72.834 -98.333 -126.501 -130s-113.834 -47.5 -180.501 -47.5c-65.333 0 -124.666 15.667 -177.999 47s-95.333 74 -126 128s-46 113.667 -46 179c0 66 15.333 126.5 46 181.5s72.834 98.333 126.501 130s113.834 47.5 180.501 47.5
c65.333 0 124.666 -15.667 177.999 -47zM537.5 100.5c41.667 25.667 74.334 60.168 98.001 103.501s35.5 91 35.5 143s-11.833 100.333 -35.5 145s-56.667 80.167 -99 106.5s-89.833 39.5 -142.5 39.5s-99.834 -12.833 -141.501 -38.5s-74.167 -60.334 -97.5 -104.001
s-35 -91.5 -35 -143.5c0 -52.667 11.833 -101.167 35.5 -145.5s56.5 -79.5 98.5 -105.5s89.667 -39 143 -39c52 0 98.833 12.833 140.5 38.5z" />
    <glyph glyph-name="Udieresis" unicode="&#xdc;" horiz-adv-x="685" 
d="M420.5 811.5c-14.333 -14.333 -31.833 -21.5 -52.5 -21.5h-101c0 20.667 7.16699 38.167 21.5 52.5s31.833 21.5 52.5 21.5h101c0 -20.667 -7.16699 -38.167 -21.5 -52.5zM553.5 677.5c14.333 14.333 31.5 21.5 51.5 21.5v-426c0 -88.667 -23 -157.5 -69 -206.5
s-110.333 -73.5 -193 -73.5c-83.333 0 -148 25 -194 75s-69 117 -69 201v430c20 0 37.167 -7.16699 51.5 -21.5s21.5 -31.5 21.5 -51.5v-354c0 -72 17.5 -125 52.5 -159s81.5 -51 139.5 -51c60 0 106.167 18 138.5 54s48.5 86.667 48.5 152v358
c0 20 7.16699 37.167 21.5 51.5z" />
    <glyph glyph-name="ccedilla" unicode="&#xe7;" horiz-adv-x="559" 
d="M475 73.5c-20 -23.667 -45.6689 -43 -77.002 -58s-66.666 -22.5 -105.999 -22.5c-45.333 0 -86.5 10.5 -123.5 31.5s-66.167 50.167 -87.5 87.5s-32 79.333 -32 126s11.167 89 33.5 127s52.166 67.667 89.499 89s78.333 32 123 32c36 0 69.5 -7 100.5 -21
s56.833 -32.667 77.5 -56s34.334 -48.333 41.001 -75l-2 -1c-8 -2 -15.667 -3 -23 -3c-12.667 0 -24.667 2.66699 -36 8s-21 13.333 -29 24c-14 18 -32 32.833 -54 44.5s-47.667 17.5 -77 17.5c-33.333 0 -63.166 -8.16699 -89.499 -24.5s-46.833 -38.5 -61.5 -66.5
s-22 -58.333 -22 -91c0 -33.333 7 -64.333 21 -93s34.167 -51.667 60.5 -69s56.833 -26 91.5 -26c45.333 0 80.333 12 105 36s42.667 50.333 54 79l65 -22c-8 -25.333 -22 -49.833 -42 -73.5zM383.498 -135.5c-14.333 -14.333 -31.833 -21.5 -52.5 -21.5h-151
c0 20.667 7.16699 38.167 21.5 52.5s31.833 21.5 52.5 21.5h151c0 -20.667 -7.16699 -38.167 -21.5 -52.5z" />
    <glyph glyph-name="odieresis" unicode="&#xf6;" horiz-adv-x="591" 
d="M369.5 605.5c-14.333 -14.333 -31.833 -21.5 -52.5 -21.5h-121c0 20.667 7.16699 38.167 21.5 52.5s31.833 21.5 52.5 21.5h121c0 -20.667 -7.16699 -38.167 -21.5 -52.5zM420.5 453.5c37.667 -21.667 67.334 -51.334 89.001 -89.001s32.5 -78.834 32.5 -123.501
c0 -46 -10.833 -88 -32.5 -126s-51.334 -67.833 -89.001 -89.5s-79.5 -32.5 -125.5 -32.5c-45.333 0 -86.833 11 -124.5 33s-67.334 51.667 -89.001 89s-32.5 78.333 -32.5 123c0 46.667 10.833 88.834 32.5 126.501s51.334 67.334 89.001 89.001s79.5 32.5 125.5 32.5
c45.333 0 86.833 -10.833 124.5 -32.5zM385.5 79c26.333 16.667 47.002 38.999 62.002 66.999s22.5 58.667 22.5 92c0 32.667 -7.5 63.334 -22.5 92.001s-35.833 51.667 -62.5 69s-56.667 26 -90 26c-34 0 -64.333 -8.33301 -91 -25s-47.334 -39 -62.001 -67
s-22 -58.667 -22 -92s7.5 -64.333 22.5 -93s35.833 -51.5 62.5 -68.5s57 -25.5 91 -25.5c33.333 0 63.166 8.33301 89.499 25z" />
    <glyph glyph-name="udieresis" unicode="&#xfc;" horiz-adv-x="583" 
d="M369.5 605.5c-14.333 -14.333 -31.833 -21.5 -52.5 -21.5h-121c0 20.667 7.16699 38.167 21.5 52.5s31.833 21.5 52.5 21.5h121c0 -20.667 -7.16699 -38.167 -21.5 -52.5zM445.5 459c13.667 13.333 29.832 19.999 48.499 19.999v-477h-68v87
c-37.333 -64 -92 -96 -164 -96c-57.333 0 -101.666 17.5 -132.999 52.5s-47 81.167 -47 138.5v295c19.333 0 35.666 -6.66699 48.999 -20s20 -29.666 20 -48.999v-209c0 -44 11.333 -79.167 34 -105.5s55.334 -39.5 98.001 -39.5c41.333 0 75.333 14.333 102 43
s40 64.334 40 107.001v204c0 19.333 6.83301 35.666 20.5 48.999z" />
    <glyph glyph-name="Gbreve" unicode="&#x11e;" horiz-adv-x="776" 
d="M500.5 811.5c-14.333 -14.333 -31.833 -21.5 -52.5 -21.5h-181c0 20.667 7.16699 38.167 21.5 52.5s31.833 21.5 52.5 21.5h181c0 -20.667 -7.16699 -38.167 -21.5 -52.5zM730 330c0 -28 -0.999023 -49.6709 -2.99902 -65.0039c-6.66699 -52 -24 -98.667 -52 -140
s-65.333 -73.666 -112 -96.999s-100 -35 -160 -35c-69.333 0 -130.333 15.5 -183 46.5s-93.5 73.333 -122.5 127s-43.5 113.834 -43.5 180.501s15.333 127.334 46 182.001s72.834 97.834 126.501 129.501s113.5 47.5 179.5 47.5c80.667 0 147.167 -19.667 199.5 -59
s88.833 -89 109.5 -149c-10 -3.33301 -19.333 -5 -28 -5c-14 0 -27.167 3.16699 -39.5 9.5s-22.5 15.5 -30.5 27.5c-20.667 30.667 -48.667 56.334 -84 77.001s-78.666 31 -129.999 31c-52 0 -98.833 -13.167 -140.5 -39.5s-74.167 -61.333 -97.5 -105
s-35 -90.834 -35 -141.501c0 -53.333 11.167 -102 33.5 -146s54.333 -79 96 -105s90.167 -39 145.5 -39c41.333 0 80.166 8.16699 116.499 24.5s66.166 39.833 89.499 70.5s36.666 67 39.999 109l1 23h-137c-18.667 0 -34.667 6.66699 -48 20s-20 29.333 -20 48h283v-27z
" />
    <glyph glyph-name="gbreve" unicode="&#x11f;" 
d="M512.5 605.5c-14.333 -14.333 -31.833 -21.5 -52.5 -21.5h-201c0 20.667 7.16699 38.167 21.5 52.5s31.833 21.5 52.5 21.5h201c0 -20.667 -7.16699 -38.167 -21.5 -52.5zM479.5 459c13.667 13.333 29.833 20.0029 48.5 20.0029v-479
c0 -75.333 -21.5 -133.5 -64.5 -174.5s-101.167 -61.5 -174.5 -61.5v61c49.333 0 89.833 14.167 121.5 42.5s47.5 71.833 47.5 130.5v110c-44.667 -72 -106.334 -108 -185.001 -108c-44 0 -83 11 -117 33s-60.167 51.667 -78.5 89s-27.5 77.666 -27.5 120.999
c0 42 9.33301 81.667 28 119s45 67.5 79 90.5s72.667 34.5 116 34.5c42.667 0 78.834 -9.83301 108.501 -29.5s55.5 -45.834 77.5 -78.501v31c0 19.333 6.83301 35.666 20.5 48.999zM375.499 85.5029c25.667 16.333 46.001 38.5 61.001 66.5s22.5 58.333 22.5 91
c0 33.333 -7.5 64 -22.5 92s-35.333 50.167 -61 66.5s-53.834 24.5 -84.501 24.5c-23.333 0 -45.333 -3.83301 -66 -11.5s-38.334 -19.167 -53.001 -34.5c-16 -16 -28.167 -36.167 -36.5 -60.5s-12.5 -49.833 -12.5 -76.5c0 -63.333 20 -112 60 -146
c14 -12 30.5 -21 49.5 -27s38.5 -9 58.5 -9c30.667 0 58.834 8.16699 84.501 24.5z" />
    <glyph glyph-name="Idotaccent" unicode="&#x130;" horiz-adv-x="281" 
d="M172 798.5c-10.667 -9.66699 -23.667 -14.498 -39 -14.498c-13.333 0 -25 4.83301 -35 14.5s-15 21.167 -15 34.5c0 15.333 5.16699 28.166 15.5 38.499s22.833 15.5 37.5 15.5s27 -5.16699 37 -15.5s15 -22.5 15 -36.5c0 -14.667 -5.33301 -26.834 -16 -36.501z
M99 699.002h73v-699h-73v699z" />
    <glyph glyph-name="dotlessi" unicode="&#x131;" horiz-adv-x="253" 
d="M166 477v-406c0 -19.333 -6.83301 -36 -20.5 -50s-30.167 -21 -49.5 -21v477h70z" />
    <glyph glyph-name="Scedilla" unicode="&#x15e;" horiz-adv-x="554" 
d="M484 261.5c9.33301 -23.667 13.9971 -44.8291 13.9971 -63.4961c0 -41.333 -10.167 -77.5 -30.5 -108.5s-48.166 -54.833 -83.499 -71.5s-75 -25 -119 -25c-43.333 0 -83.166 9.5 -119.499 28.5s-65.666 43.667 -87.999 74s-35.166 62.166 -38.499 95.499
c6.66699 2 13.667 3 21 3c14 0 27.333 -3.83301 40 -11.5s22.667 -17.834 30 -30.501c16 -27.333 38 -49.166 66 -65.499s57.667 -24.5 89 -24.5c43.333 0 80.5 11 111.5 33s46.5 53.333 46.5 94c0 37.333 -12.667 65.833 -38 85.5s-54.333 32.5 -87 38.5l-93 19
c-19.333 3.33301 -39.833 10 -61.5 20s-40.5 23 -56.5 39c-32.667 30.667 -49 71 -49 121c0 38.667 10.167 72.667 30.5 102s47.5 52.166 81.5 68.499s70.333 24.5 109 24.5c47.333 0 87.5 -8.33301 120.5 -25s58.333 -37.834 76 -63.501s29.167 -52.167 34.5 -79.5l-5 -1
c-7.33301 -2 -14.666 -3 -21.999 -3c-12.667 0 -24.5 3 -35.5 9s-19.833 14.333 -26.5 25c-14 20.667 -32.833 37.5 -56.5 50.5s-52.834 19.5 -87.501 19.5c-12 0 -21 -0.333008 -27 -1c-32.667 -3.33301 -60.667 -16.666 -84 -39.999s-35 -51.333 -35 -84
c0 -26.667 8.5 -49.834 25.5 -69.501s42.5 -32.834 76.5 -39.501l89 -17c28 -6 53 -13.5 75 -22.5s42.333 -21.833 61 -38.5c21.333 -20 36.666 -41.833 45.999 -65.5zM354.497 -135.495c-14.333 -14.333 -31.833 -21.5 -52.5 -21.5h-151c0 20.667 7.16699 38.167 21.5 52.5
s31.833 21.5 52.5 21.5h151c0 -20.667 -7.16699 -38.167 -21.5 -52.5z" />
    <glyph glyph-name="scedilla" unicode="&#x15f;" horiz-adv-x="449" 
d="M352.5 231.5c30.333 -23 45.501 -54.499 45.501 -94.499c0 -28.667 -7.66699 -53.834 -23 -75.501s-35.833 -38.5 -61.5 -50.5s-53.834 -18 -84.501 -18c-57.333 0 -100.333 14.5 -129 43.5s-46 61.5 -52 97.5c8 1.33301 14 2 18 2c13.333 0 26 -3 38 -9
s21.667 -14.333 29 -25c22 -32 53.667 -48 95 -48c27.333 0 50.666 7 69.999 21s29 33 29 57c0 26 -10.333 44.5 -31 55.5s-47.334 18.833 -80.001 23.5c-47.333 6.66699 -85.333 19.834 -114 39.501s-43 50.834 -43 93.501c0 28.667 7.66699 53.667 23 75
s35.333 37.833 60 49.5s50.334 17.5 77.001 17.5c38.667 0 70.5 -7.16699 95.5 -21.5s43.5 -31.333 55.5 -51s19.333 -38.834 22 -57.501l-4 -1c-8 -1.33301 -13.667 -2 -17 -2c-12 0 -23.667 3 -35 9s-21 14 -29 24c-21.333 26 -50.666 39 -87.999 39
c-26 0 -47.667 -7.5 -65 -22.5s-26 -32.833 -26 -53.5c0 -26.667 10.333 -44.834 31 -54.501s48.334 -16.5 83.001 -20.5c43.333 -5.33301 80.166 -19.5 110.499 -42.5zM319.501 -135.499c-14.333 -14.333 -31.833 -21.5 -52.5 -21.5h-151
c0 20.667 7.16699 38.167 21.5 52.5s31.833 21.5 52.5 21.5h151c0 -20.667 -7.16699 -38.167 -21.5 -52.5z" />
    </font>
</defs>
</svg>
