<?xml version="1.0" standalone="no"?>
<!DOCTYPE svg PUBLIC "-//W3C//DTD SVG 1.1//EN" "http://www.w3.org/Graphics/SVG/1.1/DTD/svg11.dtd" >
<svg>
<metadata>
Created by FontForge 20090914 at Sun Dec  6 11:02:35 2020
 By www-data
Copyright (c) 2009 by Maximiliano R. Sproviero &#38; Sabrina M. Lopez. All rights reserved.
</metadata>
<defs>
<font id="AphroditeSlimText" horiz-adv-x="551" >
  <font-face 
    font-family="AphroditeSlimText"
    font-weight="400"
    font-stretch="normal"
    units-per-em="1000"
    panose-1="2 0 0 0 0 0 0 0 0 0"
    ascent="800"
    descent="-200"
    x-height="513.999"
    cap-height="1133"
    bbox="-1056.81 -891.939 2405.13 1574.41"
    underline-thickness="50"
    underline-position="-50"
    unicode-range="U+0020-U+FB02"
  />
<missing-glyph horiz-adv-x="317" 
 />
    <glyph glyph-name="f_f" unicode="ff" horiz-adv-x="666" 
d="M965 794c0.666992 -18.667 -8.33105 -30.6631 -26.998 -35.9961c-8 -2 -16.333 -1 -25 3s-14.667 11 -18 21c-1.33301 3.33301 -3.33301 9.66602 -6 18.999s-5.33398 16.666 -8.00098 21.999s-7 11.333 -13 18s-14.333 11.167 -25 13.5s-23.667 2.83301 -39 1.5
c-12 -0.666992 -23.333 -3.5 -34 -8.5s-20.834 -12.667 -30.501 -23s-18.5 -20.333 -26.5 -30s-16.167 -23.5 -24.5 -41.5l-21 -44.5c-5.66699 -11.667 -12.5 -29.167 -20.5 -52.5l-18 -53l-18.5 -57.5l-17.5 -54.5c116 2 183 21 201 57
c3.33301 5.33301 7.33301 8.33301 12 9s8.33398 -0.833008 11.001 -4.5s3.33398 -7.5 2.00098 -11.5c-18.667 -48 -96.667 -73 -234 -75l-64 -205.5l-89 -286.5c-26.667 -85.333 -43 -136.333 -49 -153c-42 -114.667 -96.5 -220.334 -163.5 -317.001s-144 -179 -231 -247
s-180.5 -113.167 -280.5 -135.5s-204.333 -16.833 -313 16.5c-58.667 -12.667 -117 -16.667 -175 -12c-58.667 4.66699 -108.167 17 -148.5 37s-69.166 44.167 -86.499 72.5s-28.333 59.333 -33 93s-2.5 66.5 6.5 98.5s21.5 61.5 37.5 88.5s34.333 48.167 55 63.5
c15.333 10.667 26.666 10 33.999 -2c5.33301 -10 3 -18.333 -7 -25c-2.66699 -2 -7.83398 -4.5 -15.501 -7.5s-14 -6.16699 -19 -9.5s-11.667 -10.833 -20 -22.5s-16.833 -26.834 -25.5 -45.501c-34 -74.667 -30.833 -143.5 9.5 -206.5s112.5 -98.5 216.5 -106.5
c44.667 -4 87.667 -3 129 3c-52.667 27.333 -92.5 64.333 -119.5 111s-40.833 95.667 -41.5 147s9 103.666 29 156.999s47.833 101.166 83.5 143.499s79.667 76.666 132 102.999s107.166 38.833 164.499 37.5c85.333 -1.33301 139.333 -31.666 162 -90.999
c20 -52 12 -110.667 -24 -176c-36 -67.333 -89.333 -117.333 -160 -150c-16 -7.33301 -27.333 -5.33301 -34 6c-5.33301 10 -2.33301 18.333 9 25c0.666992 0 1.66699 0.333008 3 1c4.66699 2 12.334 3.33301 23.001 4s21.5 2.83398 32.5 6.50098s21.833 10.834 32.5 21.501
c40 40.667 68 81.834 84 123.501s20.333 77.667 13 108s-23.5 55 -48.5 74s-55.833 28.5 -92.5 28.5c-58.667 0 -112.334 -13.5 -161.001 -40.5s-87.667 -61.333 -117 -103s-50.833 -88.5 -64.5 -140.5s-17.667 -102.667 -12 -152s22.334 -95.333 50.001 -138
s64.834 -75 111.501 -97c67.333 15.333 131 42.833 191 82.5s111 83.834 153 132.501s81.5 104.667 118.5 168s66.667 121.666 89 174.999s42.833 109 61.5 167c52 160 110.667 352.333 176 577c-21.333 -1.33301 -49.333 -4 -84 -8
c-7.33301 -1.33301 -12.666 -0.166016 -15.999 3.50098s-3.83301 8 -1.5 13s6.83301 7.83301 13.5 8.5c28.667 3.33301 60.667 5.66602 96 6.99902c74.667 258 174.667 385.333 300 382c41.333 -0.666992 72.333 -8.66699 93 -24s32 -34 34 -56
c0.666992 -18.667 -8.33301 -30.667 -27 -36c-8 -2 -16.333 -1 -25 3s-14.667 11 -18 21c-1.33301 3.33301 -3.33301 9.66602 -6 18.999s-5.33398 16.666 -8.00098 21.999s-7 11.333 -13 18s-14.333 11.167 -25 13.5s-23.667 2.83301 -39 1.5
c-12 -0.666992 -23.333 -3.33398 -34 -8.00098s-20.834 -12.167 -30.501 -22.5s-18.334 -20 -26.001 -29s-15.667 -22.333 -24 -40l-21 -44c-5.66699 -11.667 -12.5 -29 -20.5 -52l-18 -52.5l-18.5 -57.5c-8.33301 -26.333 -14.166 -45.166 -17.499 -56.499
c5.33301 0 97.666 -1 276.999 -3c40 137.333 85 235.833 135 295.5s105 88.834 165 87.501c41.333 -0.666992 72.333 -8.66699 93 -24s32 -34 34 -56zM351.002 -118.996c38 114.667 97.6689 309.667 179.002 585c-12 0 -52.167 0.833008 -120.5 2.5
s-120.5 2.16699 -156.5 1.5l-177 -565c-27.333 -84.667 -60.833 -165.834 -100.5 -243.501s-85.5 -150.834 -137.5 -219.501s-111.667 -128.667 -179 -180s-138.333 -88.333 -213 -111c74 -16 144 -20.5 210 -13.5s128.667 25.833 188 56.5s114.166 68.834 164.499 114.501
s97 99.334 140 161.001s81.167 126.5 114.5 194.5s62.666 140.333 87.999 217z" />
    <glyph glyph-name="f_i" unicode="fi" horiz-adv-x="573" 
d="M536 874c41.333 0 74.1719 -10.9971 98.5049 -32.9971s38.666 -47.333 42.999 -76s3 -56.5 -4 -83.5s-18.5 -45.833 -34.5 -56.5c-21.333 -14.667 -40.5 -14.667 -57.5 0s-19.5 31.667 -7.5 51c5.33301 9.33301 14.166 15.5 26.499 18.5s23.5 6.16699 33.5 9.5
s16.333 9.66602 19 18.999c8 28 1.16699 58 -20.5 90s-57.834 46.333 -108.501 43c-19.333 -1.33301 -37.166 -6.16602 -53.499 -14.499s-31.666 -21.666 -45.999 -39.999s-26.333 -35.333 -36 -51s-20.5 -38.667 -32.5 -69s-20.833 -53.666 -26.5 -69.999
s-14.167 -42.5 -25.5 -78.5c-4.66699 -15.333 -8.33398 -26.666 -11.001 -33.999h183c77.333 0 105.666 -34.667 84.999 -104l-50.5 -140.5c-29.667 -82.333 -46.834 -134.166 -51.501 -155.499c-3.33301 -15.333 -2 -30.5 4 -45.5s17 -22.5 33 -22.5
c12.667 0 25 4.16699 37 12.5s21.5 17.333 28.5 27s15.5 22.5 25.5 38.5c2.66699 4 5.33398 5 8.00098 3c1.33301 -1.33301 1.33301 -3 0 -5c-11.333 -30.667 -28.666 -57 -51.999 -79s-49 -33.667 -77 -35c-32.667 -0.666992 -54 11.666 -64 36.999s-8 57 6 95
c4.66699 14 20.5 57.667 47.5 131s44.833 122.666 53.5 147.999c7.33301 21.333 7 38 -1 50s-22.333 18 -43 18c-100.667 0 -161 0.333008 -181 1l-106 -341c-18 -58 -38.167 -115.5 -60.5 -172.5s-50.5 -119.833 -84.5 -188.5s-70.167 -132.5 -108.5 -191.5
s-83.333 -116.667 -135 -173s-105.5 -104 -161.5 -143s-119.5 -69.5 -190.5 -91.5s-144.5 -31.333 -220.5 -28c-113.333 5.33301 -193 41 -239 107c-39.333 56.667 -45.333 121 -18 193c28.667 77.333 87.334 141 176.001 191c74.667 42 162.667 68.333 264 79
c14 1.33301 22.333 -4.33398 25 -17.001c2.66699 -12 -2 -19.333 -14 -22c-6.66699 -2 -14.334 -1.33301 -23.001 2c-27.333 9.33301 -66 7.33301 -116 -6c-45.333 -11.333 -87.5 -30.833 -126.5 -58.5s-70.667 -58.667 -95 -93s-40.666 -70.666 -48.999 -108.999
s-7.5 -73.833 2.5 -106.5s33.5 -61.167 70.5 -85.5s85.167 -40.166 144.5 -47.499c64.667 -8 128.5 -2.83301 191.5 15.5s120.5 45.666 172.5 81.999s102.5 81.166 151.5 134.499s92.667 109.666 131 168.999s74.666 122.666 108.999 189.999s63.666 131.166 87.999 191.499
s45.833 120.5 64.5 180.5l76 251c4.66699 14.667 7.16699 27.334 7.5 38.001s-1.83398 19 -6.50098 25s-9.16699 10.833 -13.5 14.5s-11.833 6.16699 -22.5 7.5s-18.5 2.16602 -23.5 2.49902s-13.833 0.5 -26.5 0.5c-8.66699 0 -14.334 2.16699 -17.001 6.5
s-2.5 8.66602 0.5 12.999s7.83301 6.5 14.5 6.5h121c73.333 250 173 375 299 375z" />
    <glyph glyph-name="C_h2" unicode="Ch" horiz-adv-x="1389" 
d="M1619 1180c32 0 56.4932 -3.98926 73.4932 -11.9893s23.5 -18 19.5 -30c-5.33301 -16.667 -19.666 -20 -42.999 -10c-26 11.333 -50.333 19.166 -73 23.499s-48.667 3.66602 -78 -2.00098s-57.833 -18.334 -85.5 -38.001s-57.834 -50.334 -90.501 -92.001
s-65.334 -93.834 -98.001 -156.501c-32.667 -64 -67 -141.5 -103 -232.5s-63 -172.167 -81 -243.5l3 -1c20.667 35.333 47.167 65.5 79.5 90.5s68.833 37.5 109.5 37.5c38 0 63.167 -15.667 75.5 -47s8.83301 -72.666 -10.5 -123.999
c-10.667 -25.333 -35.334 -96.333 -74.001 -213c-22.667 -68 -13.667 -102 27 -102c19.333 0 37.333 8 54 24s29.667 35.667 39 59c0.666992 1.33301 2 2.16602 4 2.49902s3.33301 -0.333984 4 -2.00098s0.666992 -3.5 0 -5.5c-9.33301 -30 -24.833 -56.5 -46.5 -79.5
s-47.167 -34.5 -76.5 -34.5c-70 0 -90.667 47.333 -62 142c8.66699 28.667 24.334 74.167 47.001 136.5s36.334 103.833 41.001 124.5c6.66699 28.667 5.5 51.334 -3.5 68.001s-23.833 25 -44.5 25c-38 0 -74.667 -20 -110 -60s-62 -84.333 -80 -133
c-25.333 -68.667 -58.5 -130.334 -99.5 -185.001s-85.167 -98.334 -132.5 -131.001s-95.333 -57.334 -144 -74.001s-96.334 -25 -143.001 -25c-105.333 0 -187.166 34.333 -245.499 103s-87.5 155 -87.5 259c0 80 17.333 164.667 52 254
c-100.667 11.333 -185.334 45.666 -254.001 102.999s-103 127.666 -103 210.999c0 46 9.83301 93 29.5 141s49.5 94.167 89.5 138.5s87.5 84 142.5 119s121.167 63 198.5 84s160 31.5 248 31.5c22.667 0 35.334 -7.33301 38.001 -22c2 -12.667 -3.33301 -21.334 -16 -26.001
c-9.33301 -4 -19.666 -3.33301 -30.999 2c-24.667 11.333 -57 17 -97 17c-43.333 0 -89 -6.33301 -137 -19s-96.167 -32.334 -144.5 -59.001s-91.833 -58.5 -130.5 -95.5s-70.167 -82.667 -94.5 -137s-36.5 -112.5 -36.5 -174.5c0 -73.333 29.167 -137.333 87.5 -192
s131.5 -87.667 219.5 -99c46.667 110.667 113.334 216 200.001 316s180.5 180.5 281.5 241.5s193.833 91.5 278.5 91.5c63.333 0 105 -26.333 125 -79c20.667 -56.667 11.334 -124.667 -27.999 -204c-48.667 -98 -129 -181.333 -241 -250
c-156.667 -95.333 -346.667 -143 -570 -143c-30 -82.667 -45 -165.334 -45 -248.001c0 -92.667 25 -172.167 75 -238.5s116 -99.5 198 -99.5c59.333 0 114.166 10.667 164.499 32s91 46.166 122 74.499s59.333 62.333 85 102s43.834 72.334 54.501 98.001
s20.334 51.834 29.001 78.501l50 152.5c14.667 43.667 31.834 92 51.501 145s38.334 99.167 56.001 138.5s38 80.5 61 123.5s45.5 79.833 67.5 110.5s46.833 60.667 74.5 90s55.834 52.833 84.501 70.5s60 31.834 94 42.501s69.333 16 106 16zM954.993 1131.01
c-64.667 0 -139.833 -27.332 -225.5 -81.999s-168.5 -130.334 -248.5 -227.001s-140.667 -199 -182 -307c230 -0.666992 422.667 52.333 578 159c97.333 66.667 164.333 142.667 201 228c30 72.667 30 131 0 175c-24.667 36 -65.667 54 -123 54z" />
    <glyph glyph-name="T_h" unicode="Th" horiz-adv-x="1152" 
d="M1469 1090c0 -40.667 -18.835 -75.998 -56.502 -105.998s-86.5 -51 -146.5 -63s-123.667 -14.333 -191 -7c-78.667 -133.333 -151.667 -309 -219 -527l3 -1c20.667 35.333 47.167 65.5 79.5 90.5s68.833 37.5 109.5 37.5c38 0 63.167 -15.667 75.5 -47
s8.83301 -72.666 -10.5 -123.999c-10.667 -25.333 -35.334 -96.333 -74.001 -213c-22.667 -68 -13.667 -102 27 -102c19.333 0 37.333 8 54 24s29.667 35.667 39 59c0.666992 1.33301 2 2.16602 4 2.49902s3.33301 -0.333984 4 -2.00098s0.666992 -3.5 0 -5.5
c-9.33301 -30 -24.833 -56.5 -46.5 -79.5s-47.167 -34.5 -76.5 -34.5c-70 0 -90.667 47.333 -62 142c8.66699 28.667 24.334 74.167 47.001 136.5s36.334 103.833 41.001 124.5c6.66699 28.667 5.5 51.334 -3.5 68.001s-23.833 25 -44.5 25
c-38 0 -75.333 -20.167 -112 -60.5s-62.667 -84.5 -78 -132.5c-28.667 -90 -59 -178.667 -91 -266c-3.33301 -8.66699 -9 -15 -17 -19c-24 -10.667 -37 -16.334 -39 -17.001s-3.83301 -0.166992 -5.5 1.5s-2.16699 3.5 -1.5 5.5c24 81.333 65.667 214 125 398
c72 220.667 148 394 228 520c-87.333 10.667 -184.666 36 -291.999 76c-26 -77.333 -65.167 -203.333 -117.5 -378l-82.5 -275c-70.667 -233.333 -169.334 -350 -296.001 -350c-54.667 0 -101.667 15 -141 45c-10 7.33301 -13.833 15.833 -11.5 25.5s7.83301 15.5 16.5 17.5
s17.334 -0.666992 26.001 -8c2.66699 -2.66699 8.16699 -9.33398 16.5 -20.001s15.166 -18.334 20.499 -23.001s14.833 -9.5 28.5 -14.5s29.834 -7.5 48.501 -7.5c86.667 0 157.667 86.667 213 260l55.5 178l102.5 332.5l73 235.5c-9.33301 3.33301 -33.5 13 -72.5 29
s-64.833 26.333 -77.5 31s-35.334 12.5 -68.001 23.5s-58.667 18.5 -78 22.5s-43 8 -71 12s-55 6 -81 6c-109.333 0 -193 -34.667 -251 -104c-46.667 -56 -65.667 -118.667 -57 -188c8.66699 -72 44 -127.667 106 -167c50 -32.667 112.333 -49 187 -49
c17.333 0 30.333 0.166992 39 0.5s24.834 2.33301 48.501 6s43 9.16699 58 16.5s31.167 19 48.5 35s30.333 35.333 39 58c5.33301 14.667 14.666 20 27.999 16c12 -3.33301 17 -10.666 15 -21.999c-0.666992 -3.33301 -2.33398 -7 -5.00098 -11
c-53.333 -77.333 -144 -116 -272 -116c-134.667 0 -231.667 37.333 -291 112c-46 56.667 -60.333 122.334 -43 197.001c17.333 73.333 60 132.333 128 177c62 41.333 136 62 222 62c46.667 0 98.667 -6.16699 156 -18.5s105.333 -24.833 144 -37.5
s91.334 -31.334 158.001 -56.001c4 13.333 11.5 26.5 22.5 39.5s22.833 21.833 35.5 26.5c9.33301 3.33301 14.5 1 15.5 -7s0.166992 -13.667 -2.5 -17c-4.66699 -12 -11.667 -32 -21 -60c123.333 -46 221.333 -75.333 294 -88c104.667 158 211 237 319 237
c32.667 0 58.334 -8.33301 77.001 -25s28 -37.667 28 -63zM1357 1155c-88.667 0 -178.667 -73.666 -270 -220.999c58.667 -8.66699 115.5 -7.16699 170.5 4.5s99.167 31.167 132.5 58.5s50 58 50 92c0 19.333 -7.16699 35.166 -21.5 47.499s-34.833 18.5 -61.5 18.5z" />
    <glyph glyph-name="t_i" unicode="ti" horiz-adv-x="560" 
d="M506 401c9.33301 28 8.66699 49.668 -2 65.001s-27.667 23 -51 23h-159c-2 0 -3 -0.333008 -3 -1c-38 -106.667 -69.667 -199.667 -95 -279c-24.667 -74 -35 -123 -31 -147c4 -19.333 15.333 -29.666 34 -30.999c31.333 -2 62.333 24.333 93 79
c1.33301 3.33301 3.33301 4 6 2c2 -1.33301 2.33301 -3.33301 1 -6c-10 -30 -27 -56.5 -51 -79.5s-50.667 -34.167 -80 -33.5c-64.667 2 -78.667 57 -42 165c0.666992 3.33301 1.33398 5.66602 2.00098 6.99902c2 4 6.66699 16.833 14 38.5l31 88l34 96.5
c0 0.666992 0.333008 2.33398 1 5.00098c17.333 64 14.666 96.333 -8.00098 97c-8 0 -13.333 2.16699 -16 6.5s-2.33398 8.66602 0.999023 12.999s8 6.5 14 6.5h50c1.33301 0 2 0.666992 2 2l42 112c16.667 43.333 33.5 73.333 50.5 90s36.167 25.667 57.5 27
c6.66699 0 11.667 -0.666992 15 -2s4.66602 -3 3.99902 -5s-1 -3.33301 -1 -4c-29.333 -19.333 -52.666 -51 -69.999 -95c-15.333 -36.667 -31 -78 -47 -124l1 -1h167c38 0 64.5 -11 79.5 -33s18.167 -48 9.5 -78l-39 -100l-49.5 -127.5
c-14.333 -37.667 -23.166 -63.834 -26.499 -78.501c-4 -15.333 -3.33301 -30.5 2 -45.5s16 -22.5 32 -22.5c12.667 0 25.5 4.5 38.5 13.5s22.5 17.5 28.5 25.5s15 21 27 39c4.66699 5.33301 7.33398 6 8.00098 2c0.666992 -1.33301 0.666992 -2.66602 0 -3.99902
c-12.667 -30.667 -30.834 -57 -54.501 -79s-49.5 -33.667 -77.5 -35c-32.667 -0.666992 -53.5 11.666 -62.5 36.999s-5.83301 57 9.5 95c6 16 23.667 60 53 132zM587.001 695.001c11.333 0 21 -4.16699 29 -12.5s12 -17.833 12 -28.5c0 -11.333 -4 -21 -12 -29
s-17.667 -12 -29 -12s-21 4 -29 12s-12 17.667 -12 29s4 21 12 29s17.667 12 29 12z" />
    <glyph glyph-name="P_i" unicode="Pi" horiz-adv-x="1500" 
d="M1463 109c4.66699 5.33301 7.32812 6.00195 7.99512 2.00195c0.666992 -1.33301 0.666992 -2.66602 0 -3.99902c-12 -30.667 -30.667 -57.334 -56 -80.001s-51.333 -34 -78 -34c-31.333 0 -51 12.5 -59 37.5s-4.66699 56.5 10 94.5l116 292
c18.667 48.667 8 73.667 -32 75c-75.333 -46.667 -155.333 -70 -240 -70c-69.333 0 -111.666 15.333 -126.999 46c-9.33301 19.333 -5.33301 36.333 12 51c6.66699 5.33301 11.334 6.33301 14.001 3c0 -2 -0.666992 -4.33301 -2 -7c-6 -8.66699 -6 -18.667 0 -30
s19 -21.5 39 -30.5s45.333 -13.5 76 -13.5c103.333 0 192.5 38.5 267.5 115.5s112.5 168.833 112.5 275.5c0 50.667 -9.33301 96.167 -28 136.5s-44.167 72.666 -76.5 96.999s-66.833 43.666 -103.5 57.999s-76 24.166 -118 29.499
c-6.66699 0.666992 -12.167 0.166992 -16.5 -1.5s-7.16602 -3.66699 -8.49902 -6s-2.66602 -5.83301 -3.99902 -10.5l-60 -188.5l-115 -358c-39.333 -121 -66.666 -201.833 -81.999 -242.5c-14 -37.333 -29.667 -73.666 -47 -108.999s-40.333 -73 -69 -113
s-59.334 -74.5 -92.001 -103.5s-72 -53.167 -118 -72.5s-94.333 -29 -145 -29c-68.667 0 -129.667 9.83301 -183 29.5s-95 45.667 -125 78s-53 69 -69 110s-22 83.5 -18 127.5s14 86.333 30 127s40.5 78.167 73.5 112.5s71.167 61.166 114.5 80.499
c2 28.667 6.66699 53.334 14 74.001c20 64 53 126.333 99 187s103.167 116.5 171.5 167.5s151.333 92 249 123s201.834 46.5 312.501 46.5c140 0 253.5 -31.333 340.5 -94s130.5 -145.667 130.5 -249c0 -64 -15.833 -124 -47.5 -180s-75.5 -105 -131.5 -147
c28 0 45.833 -10.167 53.5 -30.5s6.16699 -44.5 -4.5 -72.5c-6 -18.667 -25.667 -70 -59 -154s-52.333 -136 -57 -156c-1.33301 -10 -1.83301 -20 -1.5 -30s3.5 -18.833 9.5 -26.5s14.667 -11.5 26 -11.5c12.667 0 25.5 4.5 38.5 13.5s22.5 17.5 28.5 25.5s15 21 27 39z
M1108.99 1137c4 14 -2.3291 21.002 -18.9961 21.002c-52 -1.33301 -104.667 -6.33301 -158 -15s-111.666 -24.834 -174.999 -48.501s-121.5 -53.167 -174.5 -88.5s-102.5 -82.833 -148.5 -142.5s-81 -127.5 -105 -203.5c-6 -18 -10 -37 -12 -57c34 10 71 15 111 15
c103.333 0 170.666 -29 201.999 -87c23.333 -42.667 22.333 -88.667 -3 -138c-24 -46 -60 -76 -108 -90c-14.667 -4.66699 -30 -7 -46 -7c-65.333 0 -116.333 26 -153 78s-55.667 112.667 -57 182c-34.667 -20.667 -64.834 -47.667 -90.501 -81s-44.334 -69 -56.001 -107
s-18.334 -77.333 -20.001 -118s5.16602 -79.5 20.499 -116.5s36.333 -70.167 63 -99.5s63 -52.833 109 -70.5s98.333 -26.5 157 -26.5c25.333 0 51.333 3.66699 78 11s56 20.833 88 40.5s62.333 44.667 91 75s57.167 70.666 85.5 120.999s52.833 107.833 73.5 172.5
c132 410 214.333 670 247 780zM314.998 581.004c-2.66699 -42 1.16504 -82.332 11.498 -120.999s28.333 -71.334 54 -98.001s56.834 -40 93.501 -40c50 0 90 20.667 120 62c28.667 38.667 36.334 78.667 23.001 120c-16 50.667 -60 81.667 -132 93
c-17.333 2.66699 -36 4 -56 4c-40 0 -78 -6.66699 -114 -20z" />
    <glyph glyph-name="P_r" unicode="Pr" horiz-adv-x="1608" 
d="M1588 516c22 0 40.333 -7.33203 55 -21.999s22 -32 22 -52c0 -24 -6.16699 -43.5 -18.5 -58.5s-25.833 -22 -40.5 -21s-27.334 7.16699 -38.001 18.5c-9.33301 12 -11.333 25.5 -6 40.5s16.333 24.833 33 29.5c17.333 4.66699 24 13.667 20 27
c-7.33301 14.667 -20.666 22.667 -39.999 24c-38 0 -80.167 -27.333 -126.5 -82s-82.166 -124 -107.499 -208c-2.66699 -8.66699 -13 -39.834 -31 -93.501s-28 -82.834 -30 -87.501c-4 -11.333 -11.333 -19.333 -22 -24c-18 -7.33301 -29.333 -11.666 -34 -12.999
c-2.66699 -1.33301 -5 -1 -7 1s-2.33301 5 -1 9c1.33301 3.33301 10.833 31.5 28.5 84.5l57 171.5l39.5 120c14.667 45.333 24.667 83.666 30 114.999c-77.333 -48.667 -159 -73 -245 -73c-69.333 0 -111.666 15.333 -126.999 46c-9.33301 19.333 -5.33301 36.333 12 51
c6 5.33301 10.333 6.33301 13 3l-1 -7c-6 -8.66699 -6 -18.667 0 -30s19 -21.5 39 -30.5s45.333 -13.5 76 -13.5c88.667 0 167.667 29.333 237 88c7.33301 74 -10.667 111 -54 111c-18 0 -36 -7.16699 -54 -21.5s-30 -25.833 -36 -34.5
c-3.33301 -4.66699 -7 -5.33398 -11 -2.00098c-0.666992 2.66699 -0.333984 5.33398 0.999023 8.00098c4 6 11.333 14.5 22 25.5s26.334 23 47.001 36s40 19.5 58 19.5c48.667 0 76 -29 82 -87c58 72 87 154.667 87 248c0 51.333 -8.83301 96.666 -26.5 135.999
s-42.334 71.333 -74.001 96s-66 44 -103 58s-77.5 24.333 -121.5 31c-6.66699 0.666992 -12.167 0.166992 -16.5 -1.5s-7 -3.5 -8 -5.5s-2.5 -5.66699 -4.5 -11l-60 -188.5l-115 -358c-39.333 -121 -66.666 -201.833 -81.999 -242.5
c-14 -37.333 -29.667 -73.666 -47 -108.999s-40.333 -73 -69 -113s-59.334 -74.5 -92.001 -103.5s-72 -53.167 -118 -72.5s-94.333 -29 -145 -29c-60.667 0 -115.334 7.66699 -164.001 23s-88.334 35.833 -119.001 61.5s-55.5 55.334 -74.5 89.001s-30.833 69 -35.5 106
s-3.5 74.833 3.5 113.5s19.667 75 38 109s42.5 65.333 72.5 94s64 51.667 102 69c2 28 6.33301 52.667 13 74c20.667 64 54 126.333 100 187s103.167 116.5 171.5 167.5s151.333 92 249 123s201.834 46.5 312.501 46.5c140 0 253.5 -31.333 340.5 -94
s130.5 -145.667 130.5 -249c0 -57.333 -12.833 -112 -38.5 -164s-61.167 -97.333 -106.5 -136c-2 -31.333 -7.33301 -63.833 -16 -97.5s-16 -57.167 -22 -70.5h3c58.667 96.667 123 145 193 145zM1102 1137c4.66699 14 -1.33105 21.002 -17.998 21.002
c-52 -1.33301 -104.667 -6.33301 -158 -15s-111.666 -24.834 -174.999 -48.501s-121.5 -53.167 -174.5 -88.5s-102.5 -82.833 -148.5 -142.5s-81 -127.5 -105 -203.5c-6 -18 -10 -37 -12 -57c34 10 71 15 111 15c103.333 0 170.666 -29 201.999 -87
c22.667 -42.667 21.334 -88.667 -3.99902 -138c-23.333 -46 -59 -76 -107 -90c-14.667 -4.66699 -30 -7 -46 -7c-65.333 0 -116.333 26 -153 78s-55.667 112.667 -57 182c-34.667 -20.667 -64.834 -47.667 -90.501 -81s-44.334 -69 -56.001 -107
s-18.334 -77.333 -20.001 -118s5 -79.5 20 -116.5s35.833 -70.167 62.5 -99.5s63 -52.833 109 -70.5s98.333 -26.5 157 -26.5c26 0 52.333 3.66699 79 11s56 20.833 88 40.5s62.333 44.667 91 75s57.167 70.666 85.5 120.999s52.833 107.833 73.5 172.5
c122 380 204 640 246 780zM309.002 581.003c-2.66699 -42 1.16504 -82.332 11.498 -120.999s28.333 -71.334 54 -98.001s56.834 -40 93.501 -40c50 0 90 20.667 120 62c28.667 38.667 36.334 78.667 23.001 120c-16 50.667 -60 81.667 -132 93c-17.333 2.66699 -36 4 -56 4
c-41.333 0 -79.333 -6.66699 -114 -20z" />
    <glyph glyph-name="t_r" unicode="tr" horiz-adv-x="758" 
d="M491 516c46 0 75.333 -11.1621 88 -33.4951s13.334 -53.833 2.00098 -94.5h3c63.333 99.333 128 147.333 194 144c28.667 -0.666992 49.667 -10.667 63 -30s17 -41.666 11 -66.999c-5.33301 -20.667 -14.166 -35.834 -26.499 -45.501s-24.833 -13.334 -37.5 -11.001
s-23 8.83301 -31 19.5c-9.33301 11.333 -11.166 24.666 -5.49902 39.999s16.834 25.333 33.501 30c16.667 4 23 13 19 27s-15.333 21.667 -34 23h-9c-37.333 -2.66699 -79.5 -33.5 -126.5 -92.5s-83.5 -130.5 -109.5 -214.5
c-35.333 -110.667 -54.666 -170.334 -57.999 -179.001c-4.66699 -11.333 -12 -19.333 -22 -24c-2.66699 -1.33301 -7 -3.16602 -13 -5.49902s-11.333 -4.5 -16 -6.5s-7.66699 -3 -9 -3c-3.33301 -0.666992 -6 -0.166992 -8 1.5s-2 4.5 0 8.5l25.5 76.5l56 165.5
c21 61.333 35.5 105 43.5 131c23.333 75.333 -2.33398 113 -77.001 113h-151c-0.666992 0 -1.66699 -0.666992 -3 -2c-62 -176.667 -94.333 -269.334 -97 -278.001c-24.667 -72.667 -35.334 -121 -32.001 -145c3.33301 -20.667 14.333 -31.667 33 -33
c31.333 -2 62.333 24.333 93 79c1.33301 2 3.16602 2.66699 5.49902 2s2.83301 -2.66699 1.5 -6c-10 -30.667 -27 -57.5 -51 -80.5s-50.667 -34.167 -80 -33.5c-66 2 -79 59.667 -39 173c1.33301 4 6.16602 17.667 14.499 41l31.5 89.5l34 97.5
c14.667 53.333 16.334 84.333 5.00098 93c-2.66699 2.66699 -6.33398 4 -11.001 4c-8 0 -13.333 2.16699 -16 6.5s-2.5 8.66602 0.5 12.999s7.83301 6.5 14.5 6.5h49c0.666992 0 1.66699 0.666992 3 2l40 112c28 76 63.667 115 107 117c6.66699 0 11.667 -0.666992 15 -2
s4.66602 -3 3.99902 -5s-1 -3.33301 -1 -4c-27.333 -18.667 -50 -50.334 -68 -95.001l-45 -124c0 -0.666992 0.333008 -1 1 -1h186z" />
    <glyph glyph-name="x_i" unicode="xi" horiz-adv-x="750" 
d="M758 695c10.667 0 20.1641 -4.17383 28.4971 -12.5068s12.5 -17.833 12.5 -28.5c0 -11.333 -4.33301 -21 -13 -29s-18 -12 -28 -12c-10.667 0 -20.5 3.66699 -29.5 11l-21.5 18c-5.33301 4.66699 -15.333 3.5 -30 -3.5s-34 -22.833 -58 -47.5l-319 -325
c11.333 -34 26.333 -76.667 45 -128l10 -25.5c4 -10.333 7 -18.333 9 -24s4.66699 -12.167 8 -19.5s6.33301 -13.166 9 -17.499s5.83398 -8.5 9.50098 -12.5s7.5 -6.83301 11.5 -8.5s8.33301 -2.5 13 -2.5c11.333 0 22.666 3.16699 33.999 9.5s21 14.833 29 25.5
s14 19 18 25s7.33301 11.667 10 17c2.66699 6 5 8 7 6c2 -1.33301 2 -4 0 -8c-1.33301 -4.66699 -4.83301 -12 -10.5 -22s-13.834 -22.167 -24.501 -36.5s-24.667 -26.666 -42 -36.999s-35.333 -15.5 -54 -15.5c-29.333 0 -50 19.333 -62 58l-62 172l-241 -246
c-89.333 -92 -166.666 -128 -231.999 -108c-26 8.66699 -35.333 22 -28 40c6.66699 15.333 18.667 20.333 36 15c3.33301 -1.33301 9.5 -5.16602 18.5 -11.499s18 -10.833 27 -13.5s20.667 -3.16699 35 -1.5s32.833 10.334 55.5 26.001s48 38.167 76 67.5l245 253l-71 198
c-3.33301 8.66699 -6.33301 15.334 -9 20.001s-6.66699 8.83398 -12 12.501s-11.5 4 -18.5 1s-16.333 -10.167 -28 -21.5s-24.834 -27 -39.501 -47c-5.33301 -6 -9.33301 -7.33301 -12 -4c-1.33301 2 -1 4.66699 1 8c19.333 29.333 37.833 52.5 55.5 69.5s33 27.333 46 31
s24.833 3 35.5 -2s19.334 -12.833 26.001 -23.5s12.334 -23.667 17.001 -39c2.66699 -9.33301 20 -62.333 52 -159l224 230l28 29l28 29.5l26.5 27c11.667 11.667 20.834 20.334 27.501 26.001l25.5 21.5c10.333 8.66699 19.333 15 27 19l25.5 13
c9.33301 4.66699 18.333 8 27 10s17.334 3 26.001 3zM569.997 455.993c2.66699 -4 6.99902 -3.66406 12.999 1.00293c34 29.333 61.833 40.166 83.5 32.499s24.834 -31.834 9.50098 -72.501l-116 -292c-15.333 -38 -18.5 -69.667 -9.5 -95s29.833 -37.666 62.5 -36.999
c28 1.33301 54.333 13 79 35s43 48.333 55 79c1.33301 3.33301 1 5.16602 -1 5.49902s-4.33301 -0.833984 -7 -3.50098c-12 -18 -21 -31 -27 -39s-15.5 -16.5 -28.5 -25.5s-25.833 -13.5 -38.5 -13.5c-16 0 -26.667 7.5 -32 22.5s-6 30.167 -2 45.5
c4.66699 20 23.667 72 57 156s53 135.333 59 154c10.667 28 12 52 4 72s-26.333 30.333 -55 31c-16 0.666992 -34.5 -4.33301 -55.5 -15s-37.5 -21.667 -49.5 -33c-2.66699 -3.33301 -3 -6 -1 -8z" />
    <glyph glyph-name="f_u" unicode="fu" horiz-adv-x="862" 
d="M547 353c-6 -14 -14.8271 -33.4961 -26.4941 -58.4961l-29 -64l-25 -60.5c-9 -22.667 -14.833 -41.834 -17.5 -57.501s-3.66699 -30.834 -3 -45.501s5.66699 -25.834 15 -33.501s22.666 -12.167 39.999 -13.5c36 -2.66699 72.833 15.166 110.5 53.499
s69.834 87.5 96.501 147.5c15.333 32.667 37.333 87.334 66 164.001c32 80.667 69.333 122 112 124c11.333 0.666992 16.666 -1.33301 15.999 -6c-0.666992 -2 -1.66699 -3.33301 -3 -4c-19.333 -14 -37.333 -40 -54 -78s-43.334 -109 -80.001 -213
c-20 -60.667 -31 -99.667 -33 -117c-4.66699 -37.333 6.66602 -57.333 33.999 -60c17.333 -1.33301 34.333 6 51 22s30.667 35 42 57c2.66699 2.66699 4.83398 3.5 6.50098 2.5s1.83398 -3.16699 0.500977 -6.5c-10.667 -30 -28.667 -56.667 -54 -80
s-52.666 -34.333 -81.999 -33c-23.333 1.33301 -39.833 10.166 -49.5 26.499s-13.334 34.833 -11.001 55.5s8.16602 43 17.499 67h-2c-11.333 -20 -25.5 -40.167 -42.5 -60.5s-40.833 -40.333 -71.5 -60s-61.334 -29.167 -92.001 -28.5
c-31.333 0.666992 -55.166 8.33398 -71.499 23.001s-24.333 32.5 -24 53.5s4.5 43.5 12.5 67.5c12 29.333 29.833 70.5 53.5 123.5s37.834 85.5 42.501 97.5c9.33301 23.333 14.833 42.833 16.5 58.5s-2.5 28.834 -12.5 39.501s-26.667 16 -50 16h-177l-204 -652
c-18 -56.667 -39.667 -105.667 -65 -147s-51.166 -72.5 -77.499 -93.5s-50.666 -36.333 -72.999 -46s-43.166 -14.834 -62.499 -15.501c-44 -2 -84.333 6.66699 -121 26c-36.667 20 -45.667 41 -27 63c12.667 14.667 26.667 15 42 1c4.66699 -4 10.167 -11 16.5 -21
s12.166 -18.5 17.499 -25.5s14.333 -13.5 27 -19.5s28 -9 46 -9c42 -0.666992 82.167 23.166 120.5 71.499s69.166 107.833 92.499 178.5c33.333 98 95.666 298.667 186.999 602c4.66699 14.667 7.16699 27.334 7.5 38.001s-1.83398 19 -6.50098 25
s-9.16699 10.833 -13.5 14.5s-11.833 6.16699 -22.5 7.5s-18.5 2.16602 -23.5 2.49902s-13.833 0.5 -26.5 0.5c-8.66699 0 -14.334 2.16699 -17.001 6.5s-2.5 8.66602 0.5 12.999s7.83301 6.5 14.5 6.5h121c75.333 253.333 175 378.333 299 375
c40.667 -0.666992 71.5 -8.66699 92.5 -24s32.5 -34 34.5 -56c0.666992 -18 -8.33301 -30 -27 -36c-20.667 -4.66699 -35.334 3.33301 -44.001 24c-0.666992 2.66699 -2.5 9 -5.5 19s-5.83301 17.5 -8.5 22.5s-6.83398 10.833 -12.501 17.5s-13.834 11.167 -24.501 13.5
s-23.667 2.83301 -39 1.5c-12 -0.666992 -23.5 -3.66699 -34.5 -9s-21.333 -13.166 -31 -23.499s-18.5 -20.5 -26.5 -30.5s-16.167 -23.833 -24.5 -41.5l-21.5 -45c-6 -12.333 -12.833 -29.5 -20.5 -51.5l-17.5 -51.5l-17 -54l-16 -50.5h194
c84.667 0 109.667 -48.667 75 -146z" />
    <glyph glyph-name="v_a" unicode="va" horiz-adv-x="992" 
d="M980 501c6.66699 0.666992 11.166 0.174805 13.499 -1.49219s3.16602 -3.33398 2.49902 -5.00098s-1.66699 -2.83398 -3 -3.50098c-19.333 -13.333 -36.166 -37.833 -50.499 -73.5s-37.833 -105.5 -70.5 -209.5c-21.333 -66.667 -31.666 -111.334 -30.999 -134.001
c2 -26.667 14.333 -40.667 37 -42c32 -2.66699 62.667 23.666 92 78.999c1.33301 2.66699 3.33301 3.33398 6 2.00098c1.33301 -1.33301 1.66602 -3.66602 0.999023 -6.99902c-9.33301 -30.667 -26.333 -57.667 -51 -81s-51.667 -34 -81 -32c-68.667 5.33301 -83 63 -43 173
h-2c-16 -38.667 -43.667 -77.5 -83 -116.5s-79 -57.5 -119 -55.5c-42 2 -72 15.833 -90 41.5s-27 56.5 -27 92.5c0 40.667 10.667 85 32 133s49 92.333 83 133c-13.333 -12 -38.666 -15.667 -75.999 -11s-67 17 -89 37c0 0.666992 -0.333008 1 -1 1
c8.66699 -58 1.83398 -120.667 -20.499 -188s-58.333 -124.833 -108 -172.5s-104.5 -69.834 -164.5 -66.501c-34.667 2 -59.834 13.5 -75.501 34.5s-22.834 46.5 -21.501 76.5c1.33301 34 26.333 97.667 75 191c42 80.667 65.333 132 70 154
c3.33301 23.333 -3.33398 36 -20.001 38c-21.333 1.33301 -51 -24.667 -89 -78c-2 -2.66699 -4.33301 -4 -7 -4s-4.33398 1.16699 -5.00098 3.5s0 5.16602 2 8.49902c53.333 70 101 102 143 96c22.667 -2.66699 34.667 -13.834 36 -33.501s-5.16699 -45 -19.5 -76
s-30.333 -63 -48 -96s-34.5 -68.333 -50.5 -106s-24.667 -69.167 -26 -94.5c-4 -60 18.333 -91 67 -93c31.333 -0.666992 62.833 11.5 94.5 36.5s58.167 55.833 79.5 92.5s38.166 75.667 50.499 117s16.5 77 12.5 107c-2.66699 19.333 -7 35.333 -13 48
s-11.833 21.167 -17.5 25.5s-11.167 9.83301 -16.5 16.5s-8.33301 14.334 -9 23.001c-2 25.333 8.66699 38.666 32 39.999c14.667 1.33301 25.334 -6 32.001 -22c4 -5.33301 10 -12.5 18 -21.5s19.833 -19.667 35.5 -32s31.667 -22.333 48 -30s34.333 -11.334 54 -11.001
s37.834 7.16602 54.501 20.499c54 56 105 85 153 87c8.66699 0.666992 17.834 -0.5 27.501 -3.5s20.334 -8.33301 32.001 -16s21.167 -20.834 28.5 -39.501s11 -41.334 11 -68.001c15.333 42.667 31.5 72.334 48.5 89.001s35.833 25.667 56.5 27zM827.999 260.008
c21.333 58.667 30.332 105.165 26.999 139.498s-11 58.333 -23 72s-27 20.5 -45 20.5c-46 0.666992 -94.333 -32.333 -145 -99c-50 -65.333 -81.667 -134 -95 -206c-14.667 -78.667 1 -128 47 -148c8 -3.33301 16.333 -5.66602 25 -6.99902
c37.333 -6 75.833 14.833 115.5 62.5s70.834 102.834 93.501 165.501z" />
    <glyph glyph-name="c_u" unicode="cu" horiz-adv-x="927" 
d="M929 509c11.333 0.666992 16.665 -1.33398 15.998 -6.00098c-0.666992 -2 -1.66699 -3.33301 -3 -4c-20 -14 -37.333 -39.5 -52 -76.5s-38.667 -108.833 -72 -215.5c-21.333 -66.667 -31.333 -111.334 -30 -134.001c2.66699 -25.333 14.667 -39.333 36 -42
c17.333 -2 34 5.16699 50 21.5s30 35.5 42 57.5c0.666992 1.33301 1.83398 2.16602 3.50098 2.49902s2.83398 -0.166992 3.50098 -1.5s0.666992 -3 0 -5c-9.33301 -30.667 -26.333 -57.667 -51 -81s-51.667 -34.333 -81 -33c-18 0.666992 -32.167 5.83398 -42.5 15.501
s-16.666 21.834 -18.999 36.501s-2.5 30.334 -0.5 47.001s6 33.667 12 51h-2c-10 -20 -23.333 -40.5 -40 -61.5s-39.834 -41 -69.501 -60s-59.834 -28.167 -90.501 -27.5c-31.333 0.666992 -55.5 8.33398 -72.5 23.001s-25.667 32.5 -26 53.5s3.16699 43.5 10.5 67.5
c14 38 33.5 88 58.5 150s37.833 94 38.5 96c12.667 31.333 17.5 56.5 14.5 75.5s-13.833 28.833 -32.5 29.5c-13.333 0 -30.333 -11 -51 -33c-4.66699 -4.66699 -8.66699 -4.66699 -12 0c0 2.66699 0.333008 4.66699 1 6c34.667 38.667 66 58 94 58
c15.333 -0.666992 27.833 -4.83398 37.5 -12.501s16.167 -22 19.5 -43s-2 -49.833 -16 -86.5c-5.33301 -15.333 -13.166 -35 -23.499 -59l-28 -66.5l-26 -66c-9 -23.667 -15.333 -44.5 -19 -62.5s-5.33398 -35 -5.00098 -51s5.33301 -28.5 15 -37.5
s23.834 -14.167 42.501 -15.5c36 -2.66699 72.5 15.333 109.5 54s67.833 87.667 92.5 147c14.667 36 34.667 91 60 165c29.333 80.667 65.333 122 108 124zM328.999 504.999c-36.667 0 -74.1641 -19 -112.497 -57s-69.5 -84.167 -93.5 -138.5s-36 -104.833 -36 -151.5
c0 -38.667 8.33301 -69.5 25 -92.5s42.667 -34.5 78 -34.5c38 0 72.833 14.167 104.5 42.5s58.167 64.5 79.5 108.5c1.33301 3.33301 3.16602 5.5 5.49902 6.5s4 0.666992 5 -1s1.16699 -4.5 0.5 -8.5c-12.667 -39.333 -39.834 -80.333 -81.501 -123
s-86.834 -64 -135.501 -64c-41.333 0 -75.166 13.5 -101.499 40.5s-39.5 66.833 -39.5 119.5c0 51.333 14.167 105.333 42.5 162s66.666 104.834 114.999 144.501s97.833 59.5 148.5 59.5c28 0 52.167 -8 72.5 -24s31.833 -34.167 34.5 -54.5s-2.66602 -40.5 -15.999 -60.5
c-8.66699 -10.667 -19.834 -16.667 -33.501 -18s-25.167 2.66699 -34.5 12c-11.333 13.333 -16.333 25.666 -15 36.999s6 20.333 14 27c16.667 14 22.5 28.833 17.5 44.5s-19.5 23.5 -43.5 23.5z" />
    <glyph glyph-name="q_u" unicode="qu" horiz-adv-x="1012" 
d="M564 455c-4 -4.66699 -7.6709 -4.66797 -11.0039 -0.000976562c-0.666992 2.66699 -0.666992 4.66699 0 6c36 38.667 67.333 58 94 58c16 0 28.833 -3.83301 38.5 -11.5s16.167 -22.167 19.5 -43.5s-2 -50.333 -16 -87c-5.33301 -15.333 -13.166 -35 -23.499 -59
l-28.5 -66.5c-8.66699 -20.333 -17.5 -42.166 -26.5 -65.499s-15.333 -44.166 -19 -62.499s-5.16699 -35.333 -4.5 -51s5.83398 -28 15.501 -37s23.834 -14.167 42.501 -15.5c36 -2.66699 72.333 15.166 109 53.499s67.334 87.166 92.001 146.499
c12.667 30 32.667 85 60 165c29.333 80.667 65.333 122 108 124c11.333 0.666992 16.666 -1.33301 15.999 -6c-0.666992 -2 -1.66699 -3.33301 -3 -4c-19.333 -14 -36.333 -39.333 -51 -76s-39 -108.667 -73 -216c-18.667 -62 -28.667 -102.333 -30 -121
c-1.33301 -34 11 -52.333 37 -55c31.333 -3.33301 61.666 23 90.999 79c1.33301 2.66699 3.16602 3.5 5.49902 2.5s2.83301 -3.16699 1.5 -6.5c-9.33301 -30 -26.333 -56.667 -51 -80s-51.667 -34.333 -81 -33c-23.333 0.666992 -40.166 9.16699 -50.499 25.5
s-14.833 35 -13.5 56s6.33301 43.5 15 67.5h-2c-18 -34.667 -44.833 -68.334 -80.5 -101.001s-75.5 -48.667 -119.5 -48c-31.333 0.666992 -55.666 8.33398 -72.999 23.001s-26.166 32.5 -26.499 53.5s3.16699 43.5 10.5 67.5c17.333 46 50 128 98 246
c8 21.333 12.833 39.833 14.5 55.5s-0.333008 27.834 -6 36.501s-14.5 13 -26.5 13c-14 0 -31.333 -11 -52 -33zM291.996 -495.001c-23.333 0 -42.8301 3.16016 -58.4971 9.49316s-27.167 15.333 -34.5 27s-12.5 24.167 -15.5 37.5s-3.16699 29 -0.5 47
s5.66699 34.167 9 48.5s8 30.833 14 49.5l142 442h-2c-16 -38 -42.833 -76.167 -80.5 -114.5s-76.834 -57.5 -117.501 -57.5c-41.333 0 -71.833 13.167 -91.5 39.5s-29.5 57.5 -29.5 93.5c0 50.667 16 106.5 48 167.5s71.667 112.5 119 154.5s91 63 131 63
c6.66699 0 13.334 -0.666992 20.001 -2s14.667 -4.66602 24 -9.99902s17.5 -12.166 24.5 -20.499s13 -20.666 18 -36.999s7.5 -35.5 7.5 -57.5l2 -1c26.667 78 62 117 106 117c10.667 0 16 -1.66699 16 -5c-0.666992 -1.33301 -2 -3 -4 -5
c-18.667 -12.667 -34.5 -34.5 -47.5 -65.5s-33.5 -89.833 -61.5 -176.5c-2 -5.33301 -3.5 -9.66602 -4.5 -12.999l-4 -13l-4.5 -15l-151 -451c-6.66699 -20 -12.334 -38.333 -17.001 -55s-9.16699 -34.5 -13.5 -53.5s-6.66602 -35.667 -6.99902 -50
s0.666992 -27.666 3 -39.999s7.66602 -21.666 15.999 -27.999s19.166 -9.5 32.499 -9.5c14.667 0 27 2.83301 37 8.5s19.5 14.167 28.5 25.5s14.833 18 17.5 20c14.667 12.667 27.167 14.5 37.5 5.5s8.5 -21.5 -5.5 -37.5c-8.66699 -10 -21.334 -18.167 -38.001 -24.5
s-30.167 -10.166 -40.5 -11.499s-18.5 -2 -24.5 -2zM332.999 491.992c-48.667 0 -98.332 -34.667 -148.999 -104c-48.667 -66.667 -79.334 -136 -92.001 -208c-14 -76 0.666992 -123.333 44 -142c11.333 -4.66699 24.333 -7 39 -7c36.667 0 73.5 23 110.5 69
s66.167 99.333 87.5 160c12 34 20 64.667 24 92s4.66699 49.5 2 66.5s-7.5 31.167 -14.5 42.5s-14.833 19.333 -23.5 24s-18 7 -28 7z" />
    <glyph glyph-name="t_u" unicode="tu" horiz-adv-x="822" 
d="M546 372c-6 -14.667 -14.8291 -34.4941 -26.4961 -59.4941l-30 -66l-27 -64c-9.66699 -23.667 -16.167 -44.167 -19.5 -61.5s-4.83301 -33.833 -4.5 -49.5s5.16602 -27.834 14.499 -36.501s22.666 -13.667 39.999 -15c36 -2.66699 72.833 15.166 110.5 53.499
s69.834 87.5 96.501 147.5c15.333 32.667 37.333 87.334 66 164.001c32 80.667 69.333 122 112 124c11.333 0.666992 16.666 -1.33301 15.999 -6c-0.666992 -2 -1.66699 -3.33301 -3 -4c-19.333 -14 -37.333 -40 -54 -78s-43.334 -109 -80.001 -213
c-20 -60.667 -31 -99.667 -33 -117c-4.66699 -37.333 6.66602 -57.333 33.999 -60c17.333 -1.33301 34.333 6 51 22s30.667 35 42 57c2.66699 2.66699 4.83398 3.5 6.50098 2.5s1.83398 -3.16699 0.500977 -6.5c-10.667 -30 -28.667 -56.667 -54 -80
s-52.666 -34.333 -81.999 -33c-23.333 1.33301 -39.833 10.166 -49.5 26.499s-13.334 34.833 -11.001 55.5s8.16602 43 17.499 67h-2c-11.333 -20 -25.5 -40.167 -42.5 -60.5s-40.833 -40.333 -71.5 -60s-61.334 -29.167 -92.001 -28.5
c-31.333 0.666992 -55.166 8.33398 -71.499 23.001s-24.333 32.5 -24 53.5s4.5 43.5 12.5 67.5l103 241c9.33301 23.333 15.166 42.666 17.499 57.999s0 28 -7 38s-19.833 15 -38.5 15h-177c-2 0 -3 -0.333008 -3 -1l-95 -279c-22 -68.667 -32.333 -114.334 -31 -137.001
c1.33301 -25.333 12.333 -39 33 -41c32 -2.66699 63.333 23.666 94 78.999c1.33301 3.33301 3.33301 4 6 2c1.33301 -1.33301 1.66602 -3.33301 0.999023 -6c-10.667 -30 -28 -56.5 -52 -79.5s-50.667 -34.167 -80 -33.5c-64 2 -77.667 57 -41 165
c0.666992 3.33301 1.33398 5.66602 2.00098 6.99902c10.667 32.667 36.667 106.667 78 222c18.667 68.667 16.334 103 -6.99902 103c-8 0 -13.333 2.16699 -16 6.5s-2.5 8.66602 0.5 12.999s7.83301 6.5 14.5 6.5h50c1.33301 0 2 0.666992 2 2l43 112
c16.667 43.333 33.5 73.333 50.5 90s35.833 25.667 56.5 27c6.66699 0 11.667 -0.666992 15 -2s4.66602 -3 3.99902 -5s-1 -3.33301 -1 -4c-27.333 -18 -50.333 -49.667 -69 -95c-0.666992 -1.33301 -6.5 -15.666 -17.5 -42.999s-21.167 -54.333 -30.5 -81
c0 -0.666992 0.333008 -1 1 -1h203c32 0 52.5 -9.83301 61.5 -29.5s4.83301 -57.834 -12.5 -114.501z" />
    <glyph glyph-name="t_y" unicode="ty" horiz-adv-x="800" 
d="M661 142h-2.00586c-18 -34.667 -44.833 -68.334 -80.5 -101.001s-75.5 -48.667 -119.5 -48c-32 0.666992 -56.5 8.33398 -73.5 23.001s-25.667 32.5 -26 53.5s3.16699 43.5 10.5 67.5l37 96l38 96l20 49c28.667 74 21 111 -23 111h-179c-2 0 -3 -0.333008 -3 -1
c-38 -106.667 -69.667 -199.667 -95 -279c-23.333 -68.667 -34.666 -114 -33.999 -136c0.666992 -26 11.667 -40 33 -42c31.333 -2 62.333 24.333 93 79c1.33301 3.33301 3.33301 4 6 2c2 -1.33301 2.33301 -3.33301 1 -6c-10 -30 -27 -56.5 -51 -79.5
s-50.667 -34.167 -80 -33.5c-66 2 -79 59.333 -39 172c10.667 32.667 36.667 106.667 78 222c18.667 68.667 16.667 103 -6 103c-8.66699 0 -14.334 2.16699 -17.001 6.5s-2.33398 8.66602 0.999023 12.999s8.33301 6.5 15 6.5h49c0.666992 0 1.66699 0.666992 3 2l41 112
c16.667 43.333 33.5 73.333 50.5 90s36.167 25.667 57.5 27c6.66699 0 11.667 -0.666992 15 -2s4.66602 -3 3.99902 -5s-1 -3.33301 -1 -4c-26 -17.333 -48 -49 -66 -95c-15.333 -36.667 -31 -78 -47 -124c0 -0.666992 0.333008 -1 1 -1h204
c62.667 0 77.667 -47.667 45 -143c-5.33301 -15.333 -13.166 -35 -23.499 -59l-28 -66l-26 -64.5c-9 -23 -15.167 -43.5 -18.5 -61.5s-4.66602 -34.667 -3.99902 -50s5.83398 -27.5 15.501 -36.5s23.834 -14.167 42.501 -15.5c36 -2.66699 72.667 15.166 110 53.499
s68 87.5 92 147.5c18.667 46 38.334 100.667 59.001 164c29.333 80.667 65.333 122 108 124c12 0.666992 17.333 -1.33301 16 -6c0 -2 -0.666992 -3.33301 -2 -4c-19.333 -12.667 -36.166 -36.5 -50.499 -71.5s-36.833 -101.167 -67.5 -198.5
c-3.33301 -10 -5.66602 -17.333 -6.99902 -22c-34 -106 -63.333 -191.667 -88 -257c-82 -212 -186.333 -350.333 -313 -415c-85.333 -42.667 -167 -47.334 -245 -14.001c-56 24 -95.667 61.333 -119 112c-17.333 38.667 -20 77.334 -8 116.001c10 32.667 28 61.667 54 87
s55 44.333 87 57s63.333 21.834 94 27.501s58 7.5 82 5.5c10.667 -0.666992 17.5 -4.5 20.5 -11.5s1.83301 -13.5 -3.5 -19.5s-13.333 -8.33301 -24 -7c-1.33301 0 -11 3 -29 9s-36 7.66699 -54 5c-12 -2 -25.667 -5.66699 -41 -11s-33.5 -13.666 -54.5 -24.999
s-39.667 -28.333 -56 -51s-26.833 -48.667 -31.5 -78c-11.333 -70 6.33398 -126.667 53.001 -170c44.667 -41.333 101 -56.666 169 -45.999c88 13.333 167 67.666 237 162.999c35.333 48 66 104.333 92 169c60.667 162 94.667 258.333 102 289z" />
    <glyph glyph-name="F_u" unicode="Fu" horiz-adv-x="1699" 
d="M1703 509c11.333 0.666992 16.665 -1.33594 15.998 -6.00293c-0.666992 -2 -1.66699 -3.33301 -3 -4c-19.333 -14 -37.333 -40 -54 -78s-43.334 -109 -80.001 -213c-20 -60.667 -31 -99.667 -33 -117c-3.33301 -36.667 8 -56.667 34 -60c17.333 -1.33301 34.333 6 51 22
s30.667 35 42 57c2.66699 2.66699 4.83398 3.5 6.50098 2.5s1.83398 -3.16699 0.500977 -6.5c-10.667 -30 -28.667 -56.667 -54 -80s-52.666 -34.333 -81.999 -33c-23.333 1.33301 -39.833 10.166 -49.5 26.499s-13.334 34.833 -11.001 55.5s8.16602 43 17.499 67h-2
c-11.333 -20 -25.5 -40.167 -42.5 -60.5s-40.833 -40.333 -71.5 -60s-61.334 -29.167 -92.001 -28.5c-31.333 0.666992 -55.166 8.33398 -71.499 23.001s-24.333 32.5 -24 53.5s4.5 43.5 12.5 67.5l42 97.5l42.5 97.5c11.667 26.667 18.834 43.667 21.501 51
c6 14.667 10.667 28.834 14 42.501s4.33301 28.667 3 45s-5.83301 30.5 -13.5 42.5s-21.167 22 -40.5 30s-44 12 -74 12c-49.333 0 -123.666 -13.333 -222.999 -40c-56.667 -157.333 -104.334 -270.333 -143.001 -339c-76.667 -138.667 -171.667 -227.667 -285 -267
c-51.333 -18 -107.333 -27 -168 -27c-120 0 -212.833 29.667 -278.5 89s-98.5 131.333 -98.5 216c0 44 9.33301 87.667 28 131s44.5 82.5 77.5 117.5s74.833 63.333 125.5 85s105.667 32.5 165 32.5c14.667 0 22.334 -6 23.001 -18
c1.33301 -11.333 -4.33398 -18 -17.001 -20c-4 -0.666992 -8.66699 -0.333984 -14 0.999023c-6 1.33301 -11.833 3.33301 -17.5 6s-11.667 4.66699 -18 6s-14.833 2 -25.5 2c-66 0 -128.333 -34.5 -187 -103.5s-88 -146.167 -88 -231.5c0 -38.667 6.5 -75.167 19.5 -109.5
s32.167 -65.5 57.5 -93.5s59.166 -50.333 101.499 -67s90.833 -25 145.5 -25c141.333 0 256.333 61.667 345 185c50.667 70.667 105.334 183.334 164.001 338.001c5.33301 15.333 15 41.666 29 78.999c-34.667 -7.33301 -68 -11 -100 -11c-34.667 0 -64.667 6.5 -90 19.5
s-43.666 29.5 -54.999 49.5s-19.166 40 -23.499 60s-4.83301 39 -1.5 57c2 9.33301 6 13 12 11c4 -2 6 -5.66699 6 -11c0.666992 -7.33301 0.666992 -17.5 0 -30.5s2.16602 -27.5 8.49902 -43.5s14.166 -31 23.499 -45s24.666 -25.833 45.999 -35.5s46.333 -14.5 75 -14.5
c32.667 0 68 4.33301 106 13c24.667 66.667 45.667 120.834 63 162.501s39.666 89.5 66.999 143.5s57.166 101 89.499 141s67.833 74.333 106.5 103c-58 20 -100.5 34.167 -127.5 42.5s-67.833 19.833 -122.5 34.5s-107.667 25 -159 31s-104.666 9 -159.999 9
c-174 0 -314 -45 -420 -135c-73.333 -62.667 -116.666 -133.667 -129.999 -213c-11.333 -72.667 5.33398 -130.667 50.001 -174c28 -26.667 64 -44 108 -52c3.33301 -0.666992 5.66602 -1.83398 6.99902 -3.50098s1.83301 -3.16699 1.5 -4.5s-1.5 -2.33301 -3.5 -3
c-50 -15.333 -98.5 -3.66602 -145.5 35.001s-70.5 90 -70.5 154c0 37.333 8 75.333 24 114s40.833 76.334 74.5 113.001s73.834 69.5 120.501 98.5s103.334 52.167 170.001 69.5s138.334 26 215.001 26c67.333 0 138.166 -7 212.499 -21s132.166 -27.5 173.499 -40.5
s98.666 -32.167 171.999 -57.5l29 -10c84.667 57.333 185.334 86 302.001 86c63.333 0 103.333 -16.667 120 -50c13.333 -26.667 8 -52.334 -16 -77.001c-27.333 -27.333 -67 -41 -119 -41c-67.333 0 -159.333 19.667 -276 59c-34.667 -27.333 -66.5 -59.833 -95.5 -97.5
s-56.167 -82.5 -81.5 -134.5s-45.666 -97.167 -60.999 -135.5s-35 -90.5 -59 -156.5l46.5 13.5c26.333 7.66699 44.5 12.667 54.5 15l46.5 11c21 5 40.333 8.33301 58 10s35.834 2.5 54.501 2.5c59.333 0 100.166 -21.167 122.499 -63.5s22.166 -91.833 -0.500977 -148.5
c-6 -15.333 -14.5 -35 -25.5 -59l-30.5 -66.5c-9.33301 -20.333 -18.833 -42.166 -28.5 -65.499s-16.667 -44.166 -21 -62.499s-6.5 -35.333 -6.5 -51s4.66699 -28 14 -37s23.333 -14.167 42 -15.5c36 -2.66699 72.833 15.166 110.5 53.499s69.834 87.5 96.501 147.5
c15.333 32.667 37.333 87.334 66 164.001c32 80.667 69.333 122 112 124zM1580 1156c-104.667 0 -195.668 -27.334 -273.001 -82.001c112.667 -38.667 198.667 -58 258 -58c46.667 0 78.334 15 95.001 45c14 24.667 12 47.334 -6 68.001c-16 18 -40.667 27 -74 27z" />
    <glyph glyph-name="F_i" unicode="Fi" horiz-adv-x="1493" 
d="M1596 1171c63.333 0 103.335 -16.667 120.002 -50c13.333 -26.667 7.66602 -52.334 -17.001 -77.001c-26.667 -27.333 -66 -41 -118 -41c-68 0 -160.333 19.667 -277 59c-34.667 -27.333 -66.5 -60 -95.5 -98s-55.833 -82.5 -80.5 -133.5s-45 -96.5 -61 -136.5
s-35.667 -92 -59 -156c3.33301 0.666992 16.333 4.33398 39 11.001s37.167 10.834 43.5 12.501l39 10c19.667 5 35.167 8.33301 46.5 10s25.5 3.33398 42.5 5.00098s33.167 2.5 48.5 2.5c38 0 63.667 -9.83301 77 -29.5s12.666 -42.834 -2.00098 -69.501
c22.667 14.667 44.334 22 65.001 22c28 0 45.833 -10.167 53.5 -30.5s6.16699 -44.5 -4.5 -72.5c-6 -18.667 -25.667 -70 -59 -154s-52.333 -136 -57 -156c-1.33301 -10 -1.83301 -20 -1.5 -30s3.5 -18.833 9.5 -26.5s14.667 -11.5 26 -11.5c12.667 0 25.5 4.5 38.5 13.5
s22.5 17.5 28.5 25.5s15 21 27 39c4.66699 5.33301 7.33398 6 8.00098 2c0.666992 -1.33301 0.666992 -2.66602 0 -3.99902c-12 -30.667 -30.667 -57.334 -56 -80.001s-51.333 -34 -78 -34c-31.333 0 -51 12.5 -59 37.5s-4.66699 56.5 10 94.5l116 292
c8.66699 24.667 10.667 43.334 6 56.001s-14.334 19 -29.001 19c-4 0 -8 -0.5 -12 -1.5s-8.16699 -2.5 -12.5 -4.5s-8.33301 -4 -12 -6s-8 -5 -13 -9l-12 -9.5c-3 -2.33301 -7 -6 -12 -11l-11 -11l-11.5 -11.5l-10 -10c-6.66699 -6.66699 -12 -7.33398 -16 -2.00098
c-2 3.33301 -0.666992 7 4 11s10.167 10.333 16.5 19s12 19.667 17 33s6.83301 25.666 5.5 36.999s-9.66602 21 -24.999 29s-38.333 12 -69 12c-46.667 0 -117.667 -13.333 -213 -40c-56.667 -156.667 -103.667 -269.334 -141 -338.001
c-76 -138.667 -170 -228.334 -282 -269.001c-52.667 -18.667 -110.334 -28 -173.001 -28c-120.667 0 -213.667 29.833 -279 89.5s-98 131.834 -98 216.501c0 44 9.33301 87.667 28 131s44.5 82.5 77.5 117.5s74.833 63.333 125.5 85s105.667 32.5 165 32.5
c14.667 0 22.334 -6 23.001 -18c0.666992 -10.667 -4.66602 -17.334 -15.999 -20.001l-16 1c-6 1.33301 -11.833 3.33301 -17.5 6s-11.5 4.66699 -17.5 6s-14.333 2 -25 2c-66 0 -128.333 -34.5 -187 -103.5s-88 -146.167 -88 -231.5c0 -38.667 6.33301 -75.334 19 -110.001
s31.667 -66 57 -94s59.333 -50.333 102 -67s91.334 -25 146.001 -25c141.333 0 256.333 61.667 345 185c50.667 70 105 182.333 163 337c6 15.333 16 42.333 30 81c-33.333 -7.33301 -66.666 -11 -99.999 -11c-34.667 0 -64.667 6.5 -90 19.5s-43.666 29.5 -54.999 49.5
s-19.166 40 -23.499 60s-4.83301 39 -1.5 57c2 9.33301 6 13 12 11c4 -2 6 -5.66699 6 -11c0.666992 -7.33301 0.666992 -17.5 0 -30.5s2.16602 -27.5 8.49902 -43.5s14.166 -31 23.499 -45s24.666 -25.833 45.999 -35.5s46.333 -14.5 75 -14.5c32.667 0 68 4.33301 106 13
c24.667 67.333 45.667 121.5 63 162.5s39.666 88.667 66.999 143s57.166 101.5 89.499 141.5s67.833 74.333 106.5 103c-60.667 20.667 -103.334 34.834 -128.001 42.501s-65.167 19.167 -121.5 34.5s-109.833 26 -160.5 32s-103.667 9 -159 9
c-174.667 0 -315.334 -45.333 -422.001 -136c-72.667 -62.667 -115.334 -133.667 -128.001 -213c-12 -73.333 5 -131.666 51 -174.999c27.333 -26.667 63 -43.667 107 -51c3.33301 -0.666992 5.66602 -1.83398 6.99902 -3.50098s1.66602 -3.16699 0.999023 -4.5
s-1.66699 -2.33301 -3 -3c-50 -15.333 -98.5 -3.66602 -145.5 35.001s-70.5 90 -70.5 154c0 37.333 8 75.333 24 114s40.833 76.334 74.5 113.001s73.834 69.5 120.501 98.5s103.334 52.167 170.001 69.5s138.334 26 215.001 26c68 0 138.833 -7 212.5 -21
s133.167 -28 178.5 -42s102.333 -33 171 -57l9 -3c2 -0.666992 4.5 -1.66699 7.5 -3s5.83301 -2.33301 8.5 -3c84.667 57.333 185.667 86 303 86zM1581 1017c46 0 77.333 14.999 94 44.999c14 24.667 12 47.334 -6 68.001c-16 18 -40.667 27 -74 27
c-104.667 0 -195.667 -27.333 -273 -82c112.667 -38.667 199 -58 259 -58zM1493 694.999c11.333 0 21 -4 29 -12s12 -17.667 12 -29s-4 -21.166 -12 -29.499s-17.667 -12.5 -29 -12.5s-21 4.16699 -29 12.5s-12 18.166 -12 29.499c0 10.667 4 20.167 12 28.5
s17.667 12.5 29 12.5z" />
    <glyph glyph-name="A_h" unicode="Ah" horiz-adv-x="2072" 
d="M2309 1180c32 0 56.5 -3.99609 73.5 -11.9961s23.5 -18 19.5 -30c-5.33301 -16.667 -19.666 -20 -43 -10c-26 11.333 -50.333 19 -73 23s-48.834 3 -78.5 -3c-29.667 -6 -58.167 -18.833 -85.5 -38.5s-57.5 -50.167 -90.5 -91.5s-65.5 -93 -97.5 -155
c-74 -143.333 -135.333 -302 -184 -476l3 -1c20.667 35.333 47.167 65.5 79.5 90.5s68.833 37.5 109.5 37.5c38 0 63.167 -15.667 75.5 -47s8.83301 -72.666 -10.5 -123.999c-10.667 -25.333 -35.334 -96.333 -74.001 -213c-22.667 -68 -13.667 -102 27 -102
c19.333 0 37.333 8 54 24s29.667 35.667 39 59c0.666992 1.33301 2 2.16602 4 2.49902s3.33301 -0.333984 4 -2.00098s0.666992 -3.5 0 -5.5c-9.33301 -30 -24.833 -56.5 -46.5 -79.5s-47.167 -34.5 -76.5 -34.5c-70 0 -90.667 47.333 -62 142
c8.66699 28.667 24.334 74.167 47.001 136.5s36.334 103.833 41.001 124.5c6.66699 28.667 5.5 51.334 -3.5 68.001s-23.833 25 -44.5 25c-38 0 -75.333 -20.167 -112 -60.5s-62.667 -84.5 -78 -132.5c-28.667 -90 -59 -178.667 -91 -266c-3.33301 -8.66699 -9 -15 -17 -19
c-24 -10.667 -37 -16.334 -39 -17.001s-3.83301 -0.166992 -5.5 1.5s-2.16699 3.5 -1.5 5.5l55 172l56.5 177.5l56 165.5c23.667 68 44.334 122.833 62.001 164.5s39.667 89 66 142s51.666 96.667 75.999 131s52.166 67.666 83.499 99.999s63.666 58.166 96.999 77.499
c-25.333 12 -48.833 20 -70.5 24s-46.834 3 -75.501 -3s-56.834 -19.167 -84.501 -39.5s-58.334 -51.5 -92.001 -93.5s-68.167 -94 -103.5 -156c-55.333 -98 -143.666 -316 -264.999 -654c-1.33301 -2.66699 -3 -7.33398 -5 -14.001
c-5.33301 -14.667 -9.33301 -26.167 -12 -34.5l-10.5 -34.5c-4.33301 -14.667 -6.66602 -26.334 -6.99902 -35.001s0 -17.834 1 -27.501s4.33301 -17 10 -22s13.5 -7.83301 23.5 -8.5c31.333 -2 63 24.333 95 79c0.666992 1.33301 1.66699 2.16602 3 2.49902
s2.5 -0.166992 3.5 -1.5s1.16699 -3 0.5 -5c-11.333 -30.667 -29.666 -57.667 -54.999 -81s-52.333 -34 -81 -32c-64 4 -76.333 60.667 -37 170c0.666992 0.666992 1 1.33398 1 2.00098c12.667 38 20.334 66.667 23.001 86s1.33398 36.333 -3.99902 51
c-26.667 69.333 -65 132 -115 188c-111.333 -147.333 -193 -249 -245 -305c-117.333 -128.667 -233.333 -209 -348 -241c-45.333 -13.333 -92.333 -20 -141 -20c-62 0 -119 8.5 -171 25.5s-95.833 40.167 -131.5 69.5s-65.667 63.666 -90 102.999s-41 80.666 -50 123.999
s-10.833 88.166 -5.5 134.499s17.5 91 36.5 134s46.5 84 82.5 123s78.333 72.167 127 99.5c16 9.33301 27.667 8.66602 35 -2.00098c6.66699 -10 4.33398 -19 -6.99902 -27l-4 -2c-4.66699 -2 -11.667 -3.33301 -21 -4s-20.5 -4.5 -33.5 -11.5s-29.167 -19.833 -48.5 -38.5
c-32.667 -32.667 -58.834 -73.167 -78.501 -121.5s-31.667 -98.666 -36 -150.999s0.666992 -104.666 15 -156.999s36.333 -99.166 66 -140.499s71.667 -75 126 -101s116.833 -39 187.5 -39c40.667 0 81 5.83301 121 17.5s77.167 26.334 111.5 44.001s70.333 42 108 73
s70.834 60.667 99.501 89s61.167 64 97.5 107s66.833 80.667 91.5 113l91 120.5c-60 63.333 -129.5 111.666 -208.5 144.999s-159.833 50 -242.5 50c-131.333 0 -236 -42 -314 -126c-59.333 -64 -90.333 -136.667 -93 -218
c-2.66699 -78.667 21.666 -140.334 72.999 -185.001c42 -36.667 96.667 -55 164 -55c48 0 80.333 14.333 97 43c7.33301 12.667 17.333 16 30 10c11.333 -6 13.666 -15 6.99902 -27c-1.33301 -2 -3 -4 -5 -6c-23.333 -23.333 -66.666 -35 -129.999 -35
c-102 0 -175.667 36 -221 108c-39.333 62.667 -49 136.334 -29 221.001c21.333 88 69.666 160 144.999 216c76 56 167.667 84 275 84c194 0 353.667 -62.667 479 -188c108 142.667 212.167 262.834 312.5 360.501s202.166 173.5 305.499 227.5
c-22.667 -10 -56.334 -15.667 -101.001 -17s-89 0 -133 4s-95.833 8.16699 -155.5 12.5s-108.167 6.5 -145.5 6.5c-104.667 0 -181.334 -32.333 -230.001 -97c-36 -48.667 -47.667 -101.334 -35 -158.001c12 -54 42 -91.667 90 -113c22.667 -10 47.667 -15 75 -15
c29.333 0 54.333 4.16699 75 12.5s36.167 19.5 46.5 33.5s17.833 27.833 22.5 41.5s7.33398 28.5 8.00098 44.5c0.666992 11.333 5.16699 19.333 13.5 24s16 4.33398 23 -0.999023s9.83301 -13.666 8.5 -24.999c-2 -11.333 -6.66699 -24.166 -14 -38.499
s-18.166 -30.333 -32.499 -48s-34.5 -32.334 -60.5 -44.001s-55.667 -17.5 -89 -17.5c-75.333 0 -129.666 27.667 -162.999 83c-30.667 49.333 -36.334 104 -17.001 164c20.667 64.667 64 112.334 130 143.001c44 20 94 30 150 30c36.667 0 102.334 -4.16699 197.001 -12.5
s167.334 -12.5 218.001 -12.5c41.333 0 93.666 7.83301 156.999 23.5s111.333 23.5 144 23.5c50 0 81 -8.33301 93 -25c42.667 17.333 88.334 26 137 26zM1424 341.004c66 182 128.999 330.999 188.999 446.999s126 209 198 279
c-94.667 -68.667 -181.667 -146.167 -261 -232.5s-164 -188.5 -254 -306.5c48.667 -51.333 91.334 -113.666 128.001 -186.999z" />
    <glyph glyph-name="A_l2" unicode="Al" horiz-adv-x="1795" 
d="M1620 165l91 278.498c26.667 77.667 56.667 156.334 90 236.001s65.833 146.834 97.5 201.501s67 104.167 106 148.5s79.833 78.5 122.5 102.5c-24.667 11.333 -47.834 18.666 -69.501 21.999s-46.5 1.66602 -74.5 -5.00098s-55.667 -20.334 -83 -41.001
s-57.5 -51.667 -90.5 -93s-66.833 -92.333 -101.5 -153c-54.667 -96.667 -143 -315 -265 -655c-24 -66 -35.667 -110 -35 -132c0 -27.333 11.667 -41.666 35 -42.999c30.667 -2 62.334 24 95.001 78c1.33301 3.33301 3.33301 4 6 2
c1.33301 -1.33301 1.66602 -3.33301 0.999023 -6c-11.333 -30 -29.666 -56.833 -54.999 -80.5s-52.333 -34.5 -81 -32.5c-18.667 1.33301 -33 7.33301 -43 18s-15.667 22.5 -17 35.5s-0.333008 28.667 3 47s6.66602 32.333 9.99902 42s7 19.5 11 29.5
c23.333 64.667 29.666 110.334 18.999 137.001c-30 72.667 -68 135.334 -114 188.001c-111.333 -146 -191.666 -246 -240.999 -300c-117.333 -128.667 -232 -210 -344 -244c-48 -14.667 -98 -22 -150 -22c-81.333 0 -154 15 -218 45s-114 68.667 -150 116
s-60.5 101.166 -73.5 161.499s-13 120.333 0 180s40 117.334 81 173.001s93.833 101.834 158.5 138.501c16 9.33301 27.667 8.66602 35 -2.00098c6.66699 -10 4.33398 -19 -6.99902 -27l-4 -2c-4.66699 -2 -11.667 -3.33301 -21 -4s-20.5 -4.5 -33.5 -11.5
s-29.167 -20.167 -48.5 -39.5c-28 -28 -51.5 -61.833 -70.5 -101.5s-31.667 -81.5 -38 -125.5s-7.66602 -89 -3.99902 -135s15.167 -89.667 34.5 -131s44.166 -78.166 74.499 -110.499s70 -58.166 119 -77.499s103.833 -29 164.5 -29c40.667 0 81 5.83301 121 17.5
s77.167 26.5 111.5 44.5s70.333 42.333 108 73s70.834 60.167 99.501 88.5s61.167 64 97.5 107s67 80.833 92 113.5l90.5 121c-60 63.333 -131.167 111.666 -213.5 144.999s-167.166 50 -254.499 50c-129.333 0 -231.666 -41.667 -306.999 -125
c-58 -63.333 -87.333 -136 -88 -218c-1.33301 -78.667 24.334 -140.667 77.001 -186c42.667 -36.667 97.667 -55 165 -55c48 0 80.333 14.333 97 43c7.33301 12.667 17.333 16 30 10c11.333 -6 13.666 -15 6.99902 -27c-1.33301 -2 -3 -4 -5 -6
c-23.333 -23.333 -66.666 -35 -129.999 -35c-102 0 -175.667 36 -221 108c-40 63.333 -49.667 137 -29 221c22 88 70.667 160 146 216c76 55.333 167.333 83 274 83c193.333 0 353 -62.333 479 -187c80.667 114.667 180 230.167 298 346.5s224.667 196.5 320 240.5
c-28.667 -9.33301 -65.834 -14.666 -111.501 -15.999s-89.667 -0.166016 -132 3.50098s-92.166 7.66699 -149.499 12s-104.666 6.5 -141.999 6.5c-104.667 0 -181.334 -32.333 -230.001 -97c-36 -48.667 -47.667 -101.334 -35 -158.001c12 -54 42 -91.667 90 -113
c22.667 -10 47.667 -15 75 -15c29.333 0 54.333 4.16699 75 12.5s36.167 19.666 46.5 33.999s17.833 28.166 22.5 41.499s7.33398 28 8.00098 44s7.66699 25 21 27c12 2 19.667 -3 23 -15c1.33301 -4 1.66602 -8.33301 0.999023 -13
c-2 -11.333 -6.66699 -24.166 -14 -38.499s-18.166 -30.333 -32.499 -48s-34.5 -32.334 -60.5 -44.001s-55.667 -17.5 -89 -17.5c-75.333 0 -129.666 27.667 -162.999 83c-30.667 49.333 -36.334 104 -17.001 164c20.667 64.667 64 112.334 130 143.001c44 20 94 30 150 30
c36.667 0 102.334 -4.16699 197.001 -12.5s167.334 -12.5 218.001 -12.5c44.667 0 97.334 7.83301 158.001 23.5s112 23.5 154 23.5c38.667 0 65 -7.66699 79 -23c41.333 16 85 24 131 24c32 0 56.667 -4.16699 74 -12.5s24 -18.5 20 -30.5
c-2.66699 -8 -8.5 -12.667 -17.5 -14s-17.5 0 -25.5 4c-26 11.333 -50.5 19 -73.5 23s-49.333 3 -79 -3s-58.334 -18.833 -86 -38.5c-27.667 -19.667 -57.834 -50.167 -90.5 -91.5c-32.667 -41.333 -65.334 -93 -98.001 -155c-28.667 -54 -67.5 -149 -116.5 -285
s-91.5 -259.333 -127.5 -370c-23.333 -72 -33 -120 -29 -144c3.33301 -22 15.666 -33 36.999 -33c31.333 0 61.333 26.333 90 79c1.33301 2.66699 3.16602 3.66699 5.49902 3s3.16602 -3 2.49902 -7c-10 -30 -26.833 -56.333 -50.5 -79s-49.834 -34 -78.501 -34
c-11.333 0 -21.333 1.5 -30 4.5s-15.334 7.66699 -20.001 14s-8.66699 12.666 -12 18.999s-5 14.5 -5 24.5s0.166992 18.5 0.5 25.5s1.66602 16 3.99902 27s4.16602 18.833 5.49902 23.5l6 21zM1435 340.998c66 182.667 128.167 331.001 186.5 445.001
s124.833 207.667 199.5 281c-75.333 -50 -160 -125.333 -254 -226s-181 -205.334 -261 -314.001c50.667 -54 93.667 -116 129 -186z" />
    <glyph glyph-name="i_l" unicode="il" horiz-adv-x="498" 
d="M1275 1409c130 16.667 231.999 -6.00586 305.999 -68.0059c57.333 -48 85.333 -108 84 -180c-2 -77.333 -38 -145.666 -108 -204.999c-103.333 -87.333 -253 -130.333 -449 -129c-34.667 0 -70.667 1.66699 -108 5c-94.667 8.66699 -204 30.667 -328 66
c-99.333 -177.333 -191.333 -408 -276 -692c-18.667 -62 -28.667 -102 -30 -120c-2.66699 -36 9.33301 -55 36 -57c32 -1.33301 62.667 25 92 79c1.33301 3.33301 3.33301 4.33301 6 3c1.33301 -1.33301 1.66602 -3.66602 0.999023 -6.99902
c-10 -30.667 -27.167 -57.667 -51.5 -81s-51.166 -34 -80.499 -32c-10.667 0.666992 -20.167 2.66699 -28.5 6s-14.666 8.16602 -18.999 14.499s-7.83301 12.833 -10.5 19.5s-4 14.834 -4 24.501v25c0 7 1.16699 15.667 3.5 26s4.16602 18 5.49902 23s3.33301 11.833 6 20.5
s4 13.334 4 14.001c93.333 311.333 195 560 305 746c-70.667 23.333 -135 36.666 -193 39.999s-104.167 -0.666992 -138.5 -12s-64.166 -27.333 -89.499 -48s-43.166 -39.5 -53.499 -56.5s-17.833 -33.5 -22.5 -49.5c-12.667 -41.333 -7.66699 -74 15 -98
c18 -14.667 32.667 -20.167 44 -16.5s25.166 9 41.499 16s29.5 8.5 39.5 4.5c14 -5.33301 22.333 -14.666 25 -27.999s-1 -25.166 -11 -35.499s-23.333 -14.166 -40 -11.499c-58 8.66699 -98.5 29.5 -121.5 62.5s-27.833 70.167 -14.5 111.5c8 24.667 20.667 48 38 70
s41.333 42 72 60s65.5 31.5 104.5 40.5s85.833 11.167 140.5 6.5s112.667 -17.667 174 -39c176.667 290.667 388 451.334 634 482.001zM1253 861.994c50.667 8 97.001 21.667 139.001 41s76.667 41.833 104 67.5s50.166 54 68.499 85s29 62 32 93s1.16699 61.5 -5.5 91.5
c-12 42.667 -40.833 77.834 -86.5 105.501s-99.167 43 -160.5 46s-126.333 -7.83301 -195 -32.5c-88.667 -34.667 -171.334 -87.167 -248.001 -157.5s-149.667 -165.833 -219 -286.5c51.333 -14.667 96.833 -26.334 136.5 -35.001s83.834 -16.334 132.501 -23.001
s98 -9.66699 148 -9s101.333 5.33398 154 14.001zM76 455.994c-2 2 -1.66699 4.66309 1 7.99609c12 11.333 28.5 22.333 49.5 33s39.5 15.667 55.5 15c28 -0.666992 45.833 -11 53.5 -31s6.16699 -44 -4.5 -72c-6 -18.667 -25.667 -70 -59 -154s-52.333 -136 -57 -156
c-4 -15.333 -3.33301 -30.5 2 -45.5s16 -22.5 32 -22.5c12.667 0 25.5 4.5 38.5 13.5s22.5 17.5 28.5 25.5s15 21 27 39c4.66699 5.33301 7.33398 6 8.00098 2c0.666992 -1.33301 0.666992 -2.66602 0 -3.99902c-12 -30.667 -30.333 -57 -55 -79s-51 -33.667 -79 -35
c-31.333 -1.33301 -51.333 10.834 -60 36.501s-5.66699 57.5 9 95.5l116 292c15.333 40.667 12.166 64.834 -9.50098 72.501s-49.5 -3.16602 -83.5 -32.499c-6 -4.66699 -10.333 -5 -13 -1z" />
    <glyph glyph-name=".notdef" horiz-adv-x="317" 
 />
    <glyph glyph-name="space" unicode=" " horiz-adv-x="307" 
 />
    <glyph glyph-name="exclam" unicode="!" horiz-adv-x="372" 
d="M150 73c11.333 0 21.332 -4 29.999 -12s13 -17.667 13 -29c0.666992 -11.333 -3 -21 -11 -29s-17.667 -12 -29 -12s-21.166 4.16699 -29.499 12.5s-12.833 17.833 -13.5 28.5c0 11.333 3.83301 21 11.5 29s17.167 12 28.5 12zM822.999 1181
c32 0 56.666 -4.16211 73.999 -12.4951s24.333 -18.5 21 -30.5c-2.66699 -8 -8.5 -12.667 -17.5 -14s-17.5 0 -25.5 4c-22 9.33301 -42.667 16.166 -62 20.499s-40.666 6.16602 -63.999 5.49902s-46.5 -6.83398 -69.5 -18.501s-46.667 -28 -71 -49
s-49.166 -50.5 -74.499 -88.5s-50.333 -83 -75 -135c-39.333 -78.667 -101 -258.334 -185 -539.001c-25.333 -84 -60.666 -127.333 -105.999 -130c-12.667 -0.666992 -18.334 1.66602 -17.001 6.99902l2 3c23.333 16 45.666 59 66.999 129c27.333 92 53 173.167 77 243.5
s50.5 139 79.5 206s58.833 123.667 89.5 170s64.167 87.333 100.5 123s75.833 62.167 118.5 79.5s88.667 26 138 26z" />
    <glyph glyph-name="quotedbl" unicode="&#x22;" horiz-adv-x="473" 
d="M205 606c24.667 14.667 41.833 29.665 51.5 44.998s13.667 28.333 12 39s-4.33398 23.334 -8.00098 38.001s-5.16699 26 -4.5 34c2 14.667 7.33301 24.834 16 30.501s17.667 8.16699 27 7.5c7.33301 0 15.5 -3.16699 24.5 -9.5s13.833 -15.5 14.5 -27.5
c0.666992 -34 -13 -66.5 -41 -97.5s-56.333 -54.167 -85 -69.5c-6.66699 -4 -10.667 -3 -12 3c0.666992 2.66699 2.33398 5 5.00098 7zM357.999 605.998c24.667 14.667 41.832 29.665 51.499 44.998s13.667 28.333 12 39s-4.33398 23.334 -8.00098 38.001
s-5.16699 26 -4.5 34c2 14.667 7.33301 24.834 16 30.501s17.667 8.16699 27 7.5c7.33301 0 15.5 -3.16699 24.5 -9.5s13.833 -15.5 14.5 -27.5c0.666992 -34 -13 -66.5 -41 -97.5s-56 -54.167 -84 -69.5c-7.33301 -4 -11.666 -3 -12.999 3
c0.666992 2.66699 2.33398 5 5.00098 7z" />
    <glyph glyph-name="numbersign" unicode="#" horiz-adv-x="865" 
d="M822 505c5.33301 0 8.00586 -1.33398 8.00586 -4.00098l-1 -2c-17.333 -9.33301 -32.666 -14 -45.999 -14h-128l-106 -219h182c4.66699 -1.33301 7 -3 7 -5c-17.333 -9.33301 -32.333 -14 -45 -14h-153l-93 -188c-16.667 -34.667 -25 -62 -25 -82
c0 -7.33301 -0.5 -11.5 -1.5 -12.5s-4.83301 0.833008 -11.5 5.5c-4.66699 4 -8.33398 10.333 -11.001 19s-2.83398 22 -0.500977 40s8.83301 38 19.5 60l77 158h-179l-93 -188c-16.667 -34.667 -25 -62 -25 -82c0 -7.33301 -0.5 -11.5 -1.5 -12.5
s-5.16699 0.833008 -12.5 5.5c-4.66699 4 -8.33398 10.333 -11.001 19s-2.66699 22 0 40s9.33398 38 20.001 60l76 158h-162c-2 0 -3.33301 0.5 -4 1.5s-0.333984 1.83301 0.999023 2.5c16.667 9.33301 33 14 49 14h125l107 220h-187c-2 0 -3.33301 0.5 -4 1.5
s-0.333984 2.16699 0.999023 3.5c14.667 8.66699 31 13 49 13h9c5.33301 0 12.666 0.166992 21.999 0.5s19.833 0.5 31.5 0.5h41h46.5l69 142c23.333 50 35.666 88.667 36.999 116c0.666992 10 4.66699 10.667 12 2c22.667 -22.667 20 -62.667 -8 -120l-65 -140h181l68 142
c23.333 50 35.666 88.667 36.999 116c0.666992 10.667 5 11.334 13 2.00098c21.333 -22 18.666 -62 -8.00098 -120l-65 -140c58.667 0.666992 111.334 1 158.001 1zM503.006 265.999l106 219h-179l-106 -220c18.667 0 48 0.166992 88 0.5s70.333 0.5 91 0.5z" />
    <glyph glyph-name="dollar" unicode="$" horiz-adv-x="708" 
d="M556 772c38.667 -6.66699 70.666 -20.4941 95.999 -41.4941s37.666 -51.167 36.999 -90.5c-0.666992 -26.667 -12 -44 -34 -52s-40.333 -4.66699 -55 10c-11.333 10 -15.833 23.167 -13.5 39.5s10.5 28.5 24.5 36.5c6 4 10 9.33301 12 16s1 14 -3 22
c-11.333 20 -34.666 34 -69.999 42l-99 -340l44 -44.5c8 -8.33301 20.167 -22 36.5 -41s27.5 -34.667 33.5 -47s11.333 -27.166 16 -44.499s5.66699 -34.333 3 -51c-8 -56 -35.333 -102.333 -82 -139s-105 -55.667 -175 -57c-24.667 -84 -37.334 -126.667 -38.001 -128
c-6.66699 -16.667 -16.334 -29.667 -29.001 -39c-2 -2 -3.5 -2.5 -4.5 -1.5s-1.16699 3.16699 -0.5 6.5c0 1.33301 16 55.666 48 162.999c-41.333 1.33301 -76.5 8.16602 -105.5 20.499s-49.833 26.833 -62.5 43.5s-21.5 35.167 -26.5 55.5s-6.5 38.666 -4.5 54.999
s5.66699 30.833 11 43.5c5.33301 12 15.333 19.667 30 23s28.334 0.666016 41.001 -8.00098s19.334 -20.334 20.001 -35.001s-2.66602 -26 -9.99902 -34c-2 -2.66699 -7.16699 -7.66699 -15.5 -15s-14 -14.333 -17 -21s-3.16699 -14.667 -0.5 -24
c6 -20 20.5 -38.833 43.5 -56.5s56.833 -27.5 101.5 -29.5l106 362l-23 23.5l-23.5 24.5l-21 23c-10.333 11.333 -17.333 19.666 -21 24.999s-9.33398 13 -17.001 23s-13 18.333 -16 25s-6.33301 14.5 -10 23.5s-6.16699 17.5 -7.5 25.5s-1.66602 16 -0.999023 24
c3.33301 59.333 31.833 106.666 85.5 141.999s111.167 50.333 172.5 45c3.33301 12 7 24 11 36s6.66699 20.333 8 25l2 8c4.66699 17.333 14.667 29.666 30 36.999c2.66699 0.666992 4 0.333984 4 -0.999023c0 -2 -1 -5.66699 -3 -11zM526.999 168.006
c3.33301 29.333 -3.33301 58.5 -20 87.5s-41.334 60.833 -74.001 95.5l-100 -341c62.667 2 109.334 17.833 140.001 47.5s48.667 66.5 54 110.5zM432 433.006l95 324.001c-47.333 4 -91.5 -6.33301 -132.5 -31s-62.833 -57.334 -65.5 -98.001c-2 -33.333 6 -65 24 -95
s44.333 -63.333 79 -100z" />
    <glyph glyph-name="percent" unicode="%" horiz-adv-x="875" 
d="M636 608l-130.999 -212.498l-125 -200c-32.667 -52.333 -52 -83.833 -58 -94.5c-32.667 -58.667 -47.667 -102.334 -45 -131.001c0 -1.33301 -0.5 -3 -1.5 -5s-3 -2.66699 -6 -2s-6.16699 4 -9.5 10c-20 32 -8.66699 83.333 34 154l165 264.5
c91.333 145 140.666 223.833 147.999 236.5c36.667 65.333 53.667 111.333 51 138c0 1.33301 0.333008 2.66602 1 3.99902s2.5 1.66602 5.5 0.999023s6.5 -3.66699 10.5 -9c20 -27.333 7 -78.666 -39 -153.999zM678.001 358.002c49.333 0 78.999 -25.666 88.999 -76.999
c9.33301 -50 -1.66699 -105 -33 -165c-31.333 -61.333 -70.666 -100 -117.999 -116c-21.333 -8 -43 -9.66699 -65 -5c-23.333 4.66699 -41.666 16.5 -54.999 35.5s-20.333 40.5 -21 64.5s2.66602 48.333 9.99902 73c18 51.333 45 90.666 81 117.999s67.333 39.666 94 36.999
c7.33301 -0.666992 12.5 -4.16699 15.5 -10.5s2.66699 -12.5 -1 -18.5s-9.83398 -8.66699 -18.501 -8c-7.33301 0.666992 -12.666 4.16699 -15.999 10.5s-6.33301 9.5 -9 9.5c-4.66699 0 -11 -2.66699 -19 -8c-36.667 -26.667 -64.667 -62.334 -84 -107.001
s-26.166 -85.167 -20.499 -121.5s22.834 -57.833 51.501 -64.5c43.333 -9.33301 83.666 14.334 120.999 71.001c34 51.333 52.333 107 55 167c2 60.667 -16 96.334 -54 107.001c-0.666992 0.666992 -1.66699 1 -3 1c-2.66699 0.666992 -4.33398 1.66699 -5.00098 3
c1.33301 2 3 3.33301 5 4zM346 720.003c49.333 0 79 -25.334 89 -76.001c9.33301 -50 -1.66699 -105.333 -33 -166c-31.333 -61.333 -71 -100.333 -119 -117c-21.333 -6.66699 -42.666 -8 -63.999 -4c-34.667 7.33301 -57.834 29.333 -69.501 66s-10.5 72.667 3.5 108
c18 51.333 44.833 90.5 80.5 117.5s67.167 39.5 94.5 37.5c7.33301 -0.666992 12.5 -4.16699 15.5 -10.5s2.66699 -12.5 -1 -18.5s-9.5 -9 -17.5 -9c-7.33301 0.666992 -12.833 4.16699 -16.5 10.5s-6.5 9.5 -8.5 9.5c-6 0 -12.333 -2.66699 -19 -8
c-37.333 -26.667 -65.666 -62.334 -84.999 -107.001s-26 -85.167 -20 -121.5s23 -57.833 51 -64.5c43.333 -9.33301 83.666 14.334 120.999 71.001c34 51.333 52.333 107 55 167c2 60.667 -16 96.334 -54 107.001c-0.666992 0.666992 -1.66699 1 -3 1
c-5.33301 2 -6.66602 4 -3.99902 6c1.33301 0.666992 2.66602 1 3.99902 1z" />
    <glyph glyph-name="ampersand" unicode="&#x26;" horiz-adv-x="1145" 
d="M945 452c70 0 122.831 -19.832 158.498 -59.499s49.5 -91.834 41.5 -156.501c-10 -70 -50 -132.5 -120 -187.5s-156 -82.5 -258 -82.5c-115.333 0 -218.333 48 -309 144c-71.333 -81.333 -149.666 -122 -234.999 -122c-14 0 -29 1.66699 -45 5
s-33.167 9.16602 -51.5 17.499s-34.5 18.833 -48.5 31.5s-25.333 29.667 -34 51s-12 45 -10 71c2 25.333 9.5 49.5 22.5 72.5s27 42.167 42 57.5s35.5 31.166 61.5 47.499s45.833 27.833 59.5 34.5l57.5 27l7 3.5c2 1 4 1.83301 6 2.5c-28 97.333 -30 173.666 -6 228.999
c17.333 41.333 46.166 75.5 86.499 102.5s88.5 40.5 144.5 40.5c39.333 0 70.833 -11.167 94.5 -33.5s35.5 -47.833 35.5 -76.5c0 -34.667 -12.333 -65 -37 -91s-54.334 -38.667 -89.001 -38c-3.33301 0 -5 1 -5 3s1.33301 3 4 3c23.333 4 42.666 17.167 57.999 39.5
s24 46 26 71s-4.66699 48 -20 69s-39 32.5 -71 34.5c-34.667 2 -66.834 -5.5 -96.501 -22.5s-52.834 -41.5 -69.501 -73.5c-29.333 -59.333 -30.5 -137.333 -3.5 -234s72.833 -185.667 137.5 -267c15.333 20.667 34.833 48.834 58.5 84.501l60 90
c16.333 24.333 36.833 51 61.5 80s48.334 52.167 71.001 69.5s49.334 31.5 80.001 42.5s62.667 15.5 96 13.5c14.667 -1.33301 22 -6.66602 22 -15.999c0 -8.66699 -4.66699 -13.667 -14 -15c-3.33301 -0.666992 -6.66602 -0.666992 -9.99902 0
c-2 0.666992 -6.5 2.33398 -13.5 5.00098s-13.167 4.66699 -18.5 6s-14.166 1 -26.499 -1s-26.166 -6 -41.499 -12c-32 -13.333 -63.5 -34.666 -94.5 -63.999s-56.167 -58 -75.5 -86l-73 -109c-29.333 -44.667 -52.666 -78.667 -69.999 -102
c90.667 -110 185.667 -165 285 -165c106.667 0 191 36.667 253 110c47.333 56 70 117.333 68 184c-2 62.667 -25.667 107.667 -71 135c-24 14 -52.333 21 -85 21c-62.667 0 -115.334 -25.667 -158.001 -77c-32 -39.333 -46 -77 -42 -113
c2.66699 -25.333 15.334 -41.333 38.001 -48c14.667 -4 20 -11.667 16 -23c-3.33301 -10 -11 -14 -23 -12c-3.33301 0.666992 -6.66602 2 -9.99902 4c-22 13.333 -36 31.833 -42 55.5s-3.83301 48.5 6.5 74.5s25.333 50.667 45 74s45.167 42.666 76.5 57.999
s63.666 23 96.999 23zM223.998 11.001c78 -8.66699 152.001 28.333 222.001 111c-70.667 78 -121.334 169 -152.001 273c-108.667 -46.667 -175.334 -106.667 -200.001 -180c-18.667 -55.333 -11 -104.333 23 -147c26.667 -33.333 62.334 -52.333 107.001 -57z" />
    <glyph glyph-name="quotesingle" unicode="'" horiz-adv-x="49" 
d="M153 606c24.667 14.667 41.833 29.665 51.5 44.998s13.667 28.333 12 39s-4.33398 23.334 -8.00098 38.001s-5.16699 26 -4.5 34c2 14.667 7.33301 24.834 16 30.501s17.667 8.16699 27 7.5c7.33301 0 15.5 -3.16699 24.5 -9.5s13.833 -15.5 14.5 -27.5
c0.666992 -34 -13 -66.5 -41 -97.5s-56.333 -54.167 -85 -69.5c-6.66699 -4.66699 -10.667 -4 -12 2c0.666992 3.33301 2.33398 6 5.00098 8z" />
    <glyph glyph-name="parenleft" unicode="(" horiz-adv-x="517" 
d="M722 1124c-32.667 -17.333 -64.9951 -36.667 -96.9951 -58s-68.5 -50.833 -109.5 -88.5s-78.5 -78.667 -112.5 -123s-66.833 -98.833 -98.5 -163.5s-57.167 -133.667 -76.5 -207c-23.333 -86 -31.333 -174.5 -24 -265.5s23.166 -174.333 47.499 -250
s55.166 -144.167 92.499 -205.5c8.66699 -12 18.667 -21.5 30 -28.5s17.666 -11.167 18.999 -12.5c6 -5.33301 8.33301 -11 7 -17s-4.66602 -9.5 -9.99902 -10.5s-11 1.16699 -17 6.5c-9.33301 9.33301 -21.5 24.5 -36.5 45.5s-33.5 50.333 -55.5 88s-42 78.834 -60 123.501
s-34.333 95.667 -49 153s-22.167 116 -22.5 176s5.83398 124 18.501 192c17.333 79.333 46.666 155.5 87.999 228.5s86.166 135.167 134.499 186.5s99.666 97.5 153.999 138.5s103.166 72.833 146.499 95.5s81 38 113 46c8.66699 2 15.334 1.16699 20.001 -2.5
s6 -8.33398 4 -14.001s-6.66699 -9.5 -14 -11.5c-8.66699 -2 -15.334 -2.33301 -20.001 -1s-13.5 0.333008 -26.5 -3s-28.167 -9.33301 -45.5 -18z" />
    <glyph glyph-name="parenright" unicode=")" horiz-adv-x="572" 
d="M-76 -256c32.667 17.333 64.832 36.834 96.499 58.501s68 51.334 109 89.001s78.5 78.667 112.5 123s67 98.833 99 163.5s57.667 133.667 77 207c23.333 86 31.333 174.5 24 265.5s-23.166 174.167 -47.499 249.5s-55.166 143.666 -92.499 204.999
c-8.66699 12 -18.834 21.667 -30.501 29s-18.167 11.666 -19.5 12.999c-6 5.33301 -8.33301 11 -7 17s4.83301 9.5 10.5 10.5s11.5 -1.16699 17.5 -6.5c9.33301 -10 21.333 -25.333 36 -46s33.167 -50 55.5 -88s42.333 -79.333 60 -124s34 -95.667 49 -153
s22.667 -115.833 23 -175.5s-5.83398 -123.834 -18.501 -192.501c-18 -79.333 -47.5 -155.5 -88.5 -228.5s-85.833 -135.167 -134.5 -186.5s-100 -97.5 -154 -138.5s-102.833 -72.667 -146.5 -95s-81.167 -37.5 -112.5 -45.5c-14 -3.33301 -22 -0.333008 -24 9
s2.66699 15.333 14 18c8.66699 2.66699 15.334 3.33398 20.001 2.00098s13.5 -0.5 26.5 2.5s28.167 8.83301 45.5 17.5z" />
    <glyph glyph-name="asterisk" unicode="*" horiz-adv-x="814" 
d="M639 963c22.667 -16 43.4971 -26.999 62.4971 -32.999s34.833 -9.66699 47.5 -11s23 -5 31 -11c16 -12 15.333 -28 -2 -48c-18.667 -20 -36.667 -24 -54 -12c-8 5.33301 -14.167 13.333 -18.5 24s-11.833 23.5 -22.5 38.5s-27.334 30.5 -50.001 46.5
c-15.333 -44 -22.833 -80.167 -22.5 -108.5s-1.16699 -47.5 -4.5 -57.5c-8.66699 -24.667 -24.334 -37 -47.001 -37c-9.33301 0 -16.333 3.33301 -21 10s-5 15.667 -1 27c3.33301 9.33301 15.166 28.333 35.499 57s38.166 65 53.499 109
c-45.333 -22 -81.833 -44.833 -109.5 -68.5s-46.5 -37.834 -56.5 -42.501c-14 -6 -24.667 -7.83301 -32 -5.5s-12 7.83301 -14 16.5c-4 20 6.33301 36 31 48c10 4.66699 31 10.167 63 16.5s70.667 20.5 116 42.5c-23.333 16 -44.333 27 -63 33s-34.167 9.66699 -46.5 11
s-22.5 5 -30.5 11c-17.333 12 -16.666 28 2.00098 48s36.334 24 53.001 12c8 -6 14.333 -14.167 19 -24.5s12.334 -23 23.001 -38s27.334 -30.5 50.001 -46.5c15.333 44 22.833 80.333 22.5 109s1.16699 47.667 4.5 57c8.66699 24.667 24.334 37 47.001 37
c10 0 17.167 -3.16699 21.5 -9.5s4.5 -15.5 0.5 -27.5c-3.33301 -9.33301 -15.166 -28.333 -35.499 -57s-38.166 -65 -53.499 -109c46 22 82.667 45 110 69s46 38.333 56 43c25.333 12 40.666 8.33301 45.999 -11c1.33301 -8 -0.5 -16.833 -5.5 -26.5
s-13.5 -17.167 -25.5 -22.5c-10 -4.66699 -31.167 -10.167 -63.5 -16.5s-71.166 -20.5 -116.499 -42.5z" />
    <glyph glyph-name="plus" unicode="+" horiz-adv-x="484" 
d="M434 320l-13 -34h-136l-50 -138h-41l50 138l-137 1l12 33h138l43 120h41l-43 -120h136z" />
    <glyph glyph-name="comma" unicode="," horiz-adv-x="243" 
d="M25 -124c24.667 14.667 41.834 29.6689 51.501 45.002s13.667 28.333 12 39s-4.33398 23.167 -8.00098 37.5s-5.16699 25.5 -4.5 33.5c2.66699 26 17 39 43 39c7.33301 0 15.5 -3.16699 24.5 -9.5s13.833 -15.5 14.5 -27.5c0.666992 -34.667 -13 -67.5 -41 -98.5
s-56.333 -54.167 -85 -69.5c-5.33301 -2.66699 -9 -2.33398 -11 0.999023s-0.666992 6.66602 4 9.99902z" />
    <glyph glyph-name="hyphen" unicode="-" horiz-adv-x="452" 
d="M399 252c8 -11.333 11.498 -22.332 10.498 -32.999s-6.83301 -17.334 -17.5 -20.001c-10 -2.66699 -19 -1.5 -27 3.5s-17.167 13.333 -27.5 25s-19.5 20.5 -27.5 26.5c-23.333 16 -54.666 25 -93.999 27s-72.666 0.333008 -99.999 -5l-42 -9c-12.667 -4 -19 -2 -19 6
c0 9.33301 24.5 18 73.5 26s102 8.66699 159 2s94.167 -23 111.5 -49z" />
    <glyph glyph-name="period" unicode="." horiz-adv-x="206" 
d="M78 78c10.667 0 20.167 -4 28.5 -12s12.5 -17.667 12.5 -29s-4.16699 -21 -12.5 -29s-17.833 -12 -28.5 -12c-11.333 0 -21 4 -29 12s-12 17.667 -12 29s4 21 12 29s17.667 12 29 12z" />
    <glyph glyph-name="slash" unicode="/" horiz-adv-x="458" 
d="M689 1208c6.66699 -7.33301 11.334 -17.6689 14.001 -31.002s2 -31.666 -2 -54.999s-12.333 -48.666 -25 -75.999l-179 -383.5l-247 -527.5c-74.667 -159.333 -114.334 -244.666 -119.001 -255.999c-26.667 -64 -37.334 -109.667 -32.001 -137
c1.33301 -4.66699 0 -7 -4 -7c-3.33301 -0.666992 -7.66602 2.33301 -12.999 9c-26 33.333 -22 87.666 12 162.999l152.5 325l259.5 552c84 178.667 128.333 273.667 133 285c28 66.667 39 113.667 33 141c0 10.667 5.66699 10 17 -2z" />
    <glyph glyph-name="zero" unicode="0" horiz-adv-x="566" 
d="M43 181c0 58.667 15.8291 117.334 47.4961 176.001s72.167 106.5 121.5 143.5s97.666 55.5 144.999 55.5c12.667 0 21.834 -5.33301 27.501 -16s5.83398 -21.5 0.500977 -32.5s-15 -16.5 -29 -16.5c-12 0 -21 5.66699 -27 17s-11.333 17 -16 17
c-19.333 0 -41.5 -9.83301 -66.5 -29.5s-48.667 -45.167 -71 -76.5s-41.166 -69.5 -56.499 -114.5s-23 -89.833 -23 -134.5c0 -54.667 10.5 -97 31.5 -127s50.833 -45 89.5 -45s75.834 14.5 111.501 43.5s65.5 65.5 89.5 109.5s43.167 91.667 57.5 143s21.5 99.333 21.5 144
c0 31.333 -4.16699 58.666 -12.5 81.999s-18.5 40.5 -30.5 51.5s-23.167 19 -33.5 24s-19.5 7.5 -27.5 7.5c-5.33301 0 -7.83301 2 -7.5 6s2.83301 6 7.5 6c76 0 125 -36 147 -108c20.667 -69.333 13.667 -151.333 -21 -246c-36 -96 -87.667 -169.667 -155 -221
c-49.333 -36.667 -100.666 -55 -153.999 -55c-54.667 0 -96.167 19 -124.5 57s-42.5 84.333 -42.5 139z" />
    <glyph glyph-name="one" unicode="1" horiz-adv-x="423" 
d="M486 614c-24.667 -16.667 -49.3359 -61.334 -74.0029 -134.001c-4.66699 -15.333 -29.167 -87.166 -73.5 -215.499s-71.833 -206.5 -82.5 -234.5c-4 -9.33301 -10 -15.666 -18 -18.999c-4 -1.33301 -11.167 -4.5 -21.5 -9.5s-16.166 -7.5 -17.499 -7.5
c-2 -0.666992 -3.83301 -0.166992 -5.5 1.5s-2.16699 3.5 -1.5 5.5l147 411c-32.667 -62.667 -86.667 -123.834 -162 -183.501s-139.333 -93.834 -192 -102.501c-2.66699 0 -4.66699 0.5 -6 1.5s-1.66602 2.33301 -0.999023 4s2 2.83398 4 3.50098
c43.333 12 86.833 33.333 130.5 64s82.667 65.834 117 105.501s64.5 79.167 90.5 118.5s48 77.666 66 114.999c26.667 57.333 57.334 86 92.001 86c10.667 0 14.667 -2 12 -6c-0.666992 -2 -2 -3.33301 -4 -4z" />
    <glyph glyph-name="two" unicode="2" horiz-adv-x="516" 
d="M218 105c20.667 0 40.6709 -5.50098 60.0039 -16.501s35.166 -23 47.499 -36s26.833 -25 43.5 -36s32.667 -16.5 48 -16.5c16 0 34.333 5.33301 55 16c6.66699 4 10 3.33301 10 -2c0.666992 -3.33301 -1 -6 -5 -8c-35.333 -18.667 -67.666 -28 -96.999 -28
c-20.667 0 -40.5 5.16699 -59.5 15.5s-34.5 21.833 -46.5 34.5s-26 24.167 -42 34.5s-32 15.5 -48 15.5c-20.667 0 -40.834 -5.83301 -60.501 -17.5s-43.834 -31.834 -72.501 -60.501c-18 -16.667 -33.333 -21 -46 -13c-10.667 6.66699 -10.667 16.334 0 29.001
c2 2.66699 4.33301 5 7 7c35.333 28 80.666 61.333 135.999 100l138 98c36.667 26.667 73.667 56 111 88s65.333 63.333 84 94s28 61.334 28 92.001c0 36 -11 64.333 -33 85s-55 31 -99 31c-56.667 0 -103.834 -21.667 -141.501 -65s-56.5 -88.333 -56.5 -135
c0 -26.667 4.66699 -49.834 14 -69.501s23 -29.5 41 -29.5c6.66699 0 13.667 7.66699 21 23s17.666 23 30.999 23c8.66699 0 15.5 -3 20.5 -9s7.5 -12.667 7.5 -20c0 -23.333 -24.333 -35 -73 -35c-54 0 -89.333 22 -106 66c-16 42.667 -9.66699 89 19 139
c34.667 60 88.667 99.667 162 119c26.667 6.66699 54.667 10 84 10c50.667 0 90.834 -11.5 120.501 -34.5s44.5 -55.833 44.5 -98.5c0 -24.667 -5.33301 -47.667 -16 -69s-29.667 -44.666 -57 -69.999s-54.333 -48 -81 -68l-120.5 -90l-143.5 -110
c25.333 11.333 49 17 71 17z" />
    <glyph glyph-name="three" unicode="3" horiz-adv-x="512" 
d="M474 84c0 -45.333 -11.6709 -87.833 -35.0039 -127.5s-52.666 -72 -87.999 -97s-73 -44.667 -113 -59s-78 -21.5 -114 -21.5c-85.333 0 -140.333 23.667 -165 71c-16.667 32 -15 64 5 96c18 29.333 43 44 75 44c15.333 0 25.833 -4.66699 31.5 -14
s5.83398 -18.833 0.500977 -28.5s-13.666 -14.5 -24.999 -14.5c-8 0 -15.5 3.66699 -22.5 11s-12.167 11 -15.5 11c-11.333 0 -20.333 -10.333 -27 -31c-10 -33.333 -3.33301 -62.666 20 -87.999c24.667 -27.333 65.667 -41 123 -41c90 0 164.333 34 223 102
c45.333 53.333 68.333 111 69 173c0.666992 60 -21.666 101 -66.999 123c-34.667 17.333 -79 19.666 -133 6.99902c-6.66699 -1.33301 -10.667 -0.333008 -12 3s1.66699 6.33301 9 9c52.667 18.667 90.667 34 114 46c122 62 183.333 137.333 184 226
c0 41.333 -11.667 72.5 -35 93.5s-54 31.5 -92 31.5c-21.333 0 -43.5 -4.16699 -66.5 -12.5s-45 -20.5 -66 -36.5s-38.333 -37.5 -52 -64.5s-20.5 -57.167 -20.5 -90.5c0 -29.333 5.83301 -51.5 17.5 -66.5s24.834 -22.5 39.501 -22.5c5.33301 0 9.83301 2.16699 13.5 6.5
s6.5 9.16602 8.5 14.499s5.33301 10.166 10 14.499s10.667 6.5 18 6.5c8.66699 0 15.667 -2.5 21 -7.5s8 -11.5 8 -19.5c0 -25.333 -24.667 -38 -74 -38c-32.667 0 -59.5 9.5 -80.5 28.5s-31.5 47.833 -31.5 86.5c0 64.667 28.667 117 86 157s119 60 185 60
c49.333 0 89.5 -12.667 120.5 -38s46.5 -59.666 46.5 -102.999c0 -104 -89 -189.333 -267 -256c15.333 3.33301 32.666 3 51.999 -1s38.333 -11.333 57 -22s34.167 -26.667 46.5 -48s18.5 -45.666 18.5 -72.999z" />
    <glyph glyph-name="four" unicode="4" horiz-adv-x="475" 
d="M524 614c-24.667 -17.333 -47.665 -61.999 -68.998 -133.999c-5.33301 -22 -50 -166 -134 -432c26.667 -2.66699 49.834 -1.16699 69.501 4.5s32.334 11 38.001 16s12.5 12.833 20.5 23.5l3 3c9.33301 12 18 14.333 26 7c7.33301 -7.33301 7 -14 -1 -20
c-47.333 -37.333 -102 -57 -164 -59c-34 -110 -54.333 -173.333 -61 -190c-3.33301 -9.33301 -9 -15.666 -17 -18.999c-26.667 -10.667 -41.334 -16.334 -44.001 -17.001c-1.33301 -0.666992 -3 -0.166992 -5 1.5s-2.66699 3.5 -2 5.5l71 221
c-17.333 2 -42.666 5.66699 -75.999 11s-60.333 9.16602 -81 11.499s-45.834 2.33301 -75.501 0s-57.167 -8.5 -82.5 -18.5c-4 -1.33301 -7.5 -1 -10.5 1s-4 4.83301 -3 8.5s3.83301 6.5 8.5 8.5c77.333 40.667 166.666 113.167 267.999 217.5s176.666 201.5 225.999 291.5
c24.667 45.333 52 68 82 68c11.333 0 16.666 -2 15.999 -6c-0.666992 -2 -1.66699 -3.33301 -3 -4zM265.002 54.001l130 408.002c-22.667 -41.333 -78.167 -107.833 -166.5 -199.5s-162.833 -158.5 -223.5 -200.5c14.667 4 30.167 7 46.5 9s30.5 3.16699 42.5 3.5
s27.333 -0.333984 46 -2.00098s32.167 -3.16699 40.5 -4.5s23 -3.83301 44 -7.5s34.5 -5.83398 40.5 -6.50098z" />
    <glyph glyph-name="five" unicode="5" horiz-adv-x="568" 
d="M129 228c17.333 25.333 45.9941 49.001 85.9941 71.001s79.333 33 118 33c50.667 0 92.334 -17.333 125.001 -52s49 -78 49 -130c0 -64.667 -19 -126.334 -57 -185.001s-84.667 -104.667 -140 -138s-110 -50 -164 -50c-85.333 0 -138.666 25.667 -159.999 77
c-14 32.667 -12.333 64 5 94c11.333 20.667 25.666 31 42.999 31c8.66699 0 15.667 -2.83301 21 -8.5s8 -12.5 8 -20.5c0 -10 -7.33301 -19.667 -22 -29s-22 -21 -22 -35c0 -27.333 11.5 -49.666 34.5 -66.999s53.833 -26 92.5 -26c87.333 0 161.333 38.333 222 115
c48.667 62.667 75.334 131.667 80.001 207c4.66699 74 -15 126.333 -59 157c-22.667 15.333 -50 23 -82 23c-71.333 0 -134.333 -34.667 -189 -104c-9.33301 -12 -17.333 -16 -24 -12c-4 2 -4.33301 7.33301 -1 16c8.66699 22.667 33.334 93 74.001 211
s62.667 183.667 66 197c6.66699 22 17 30.333 31 25c46 -18.667 82.333 -31.334 109 -38.001s58.834 -8.5 96.501 -5.5s80.834 13.167 129.501 30.5c8 2.66699 12.833 2.16699 14.5 -1.5s-0.166016 -7.5 -5.49902 -11.5c-105.333 -77.333 -225.333 -82.333 -360 -15z" />
    <glyph glyph-name="six" unicode="6" horiz-adv-x="557" 
d="M743 790c8.66699 0 14.8301 -3.33008 18.4971 -9.99707s3.83398 -13.167 0.500977 -19.5s-10 -9.5 -20 -9.5c-7.33301 0 -19.833 2.66699 -37.5 8s-33.5 8 -47.5 8c-67.333 0 -133.666 -19.667 -198.999 -59s-121 -88.833 -167 -148.5s-83.333 -124.834 -112 -195.501
s-43 -137.334 -43 -200.001c0 -48.667 10.667 -88.167 32 -118.5s52 -45.5 92 -45.5c66 0 124.333 36.667 175 110c44 64.667 68.333 134.667 73 210c4.66699 76.667 -14.333 127.667 -57 153c-16.667 10 -36 15 -58 15c-30 0 -59.333 -11.5 -88 -34.5
s-43 -46.833 -43 -71.5c0 -4.66699 2.33301 -11.334 7 -20.001s7 -17.667 7 -27c0 -11.333 -4.66699 -19.5 -14 -24.5s-18.666 -5.33301 -27.999 -1s-14 12.833 -14 25.5c0 39.333 19.333 78.333 58 117s83.334 58 134.001 58c73.333 0 120.666 -32.333 141.999 -97
c20 -60 13.667 -129.333 -19 -208c-34 -81.333 -84 -142 -150 -182c-44 -26.667 -90.333 -40 -139 -40c-79.333 0 -131 35.333 -155 106s-16 157.667 24 261c45.333 114.667 117 212 215 292c121.333 98.667 259 148 413 148z" />
    <glyph glyph-name="seven" unicode="7" horiz-adv-x="511" 
d="M-7 -206c-10 -16.667 -22.3359 -22.002 -37.0029 -16.002c-13.333 4.66699 -18.333 14.334 -15 29.001c1.33301 4 3.33301 8 6 12l23 33l48.5 71l68.5 95.5l82.5 112l89.5 116l92.5 112.5c29 34 58.167 65.833 87.5 95.5s55.333 52.834 78 69.501
c-28 -14 -53.333 -21 -76 -21c-27.333 0 -62.666 11.167 -105.999 33.5s-78 33.5 -104 33.5c-35.333 0 -73 -14.333 -113 -43c-6.66699 -5.33301 -11.667 -5.33301 -15 0c-1.33301 3.33301 -0.333008 6.66602 3 9.99902c62.667 55.333 119 83 169 83
c32 0 70.667 -12.667 116 -38s78.333 -38 99 -38c36.667 0 75 25.333 115 76c12.667 15.333 26.334 21 41.001 17c14 -4 18 -13.333 12 -28c-2.66699 -5.33301 -6.66699 -11 -12 -17c-6 -6.66699 -21.833 -18.167 -47.5 -34.5s-56.667 -39.166 -93 -68.499
s-71.166 -63 -104.499 -101c-97.333 -112.667 -176.333 -210 -237 -292s-99.167 -138.833 -115.5 -170.5s-29 -60.5 -38 -86.5s-14.833 -41 -17.5 -45z" />
    <glyph glyph-name="eight" unicode="8" horiz-adv-x="534" 
d="M574 624c0 -26.667 -6.16895 -51 -18.502 -73s-31 -42.167 -56 -60.5s-47.667 -33 -68 -44s-47.166 -24.167 -80.499 -39.5c28.667 -29.333 50.5 -52.833 65.5 -70.5s29.333 -39.667 43 -66s20.5 -51.833 20.5 -76.5c0 -46 -13.167 -86.167 -39.5 -120.5
s-57.666 -59.166 -93.999 -74.499s-73.833 -23 -112.5 -23c-54 0 -98.833 16.833 -134.5 50.5s-53.5 74.167 -53.5 121.5c0 24 5.16699 46.833 15.5 68.5s22.666 40.5 36.999 56.5s33.333 32 57 48s44.834 28.833 63.501 38.5s41.667 20.834 69 33.501
c-33.333 35.333 -58.5 67.666 -75.5 96.999s-25.5 61.666 -25.5 96.999c0 54 22.667 98.333 68 133s97.333 52 156 52c44 0 82.167 -12.833 114.5 -38.5s48.5 -62.167 48.5 -109.5zM298.998 382c-24.667 -12 -44.3301 -22.0029 -58.9971 -30.0029
s-32.334 -19.5 -53.001 -34.5s-36.834 -30.167 -48.501 -45.5s-21.834 -34.666 -30.501 -57.999s-13 -48.666 -13 -75.999c0 -43.333 12.5 -78.666 37.5 -105.999s60.833 -41 107.5 -41c52 0 95.833 17.333 131.5 52s53.5 77.667 53.5 129c0 19.333 -2.66699 37.5 -8 54.5
s-15 35 -29 54s-26.333 34.5 -37 46.5s-28 30.333 -52 55zM400.002 757.997c-43.333 0 -80.833 -15.168 -112.5 -45.501s-47.5 -70.166 -47.5 -119.499c0 -48 33.333 -106.333 100 -175c56.667 28 102.334 57.333 137.001 88s52 67.667 52 111c0 42 -11.333 76 -34 102
s-54.334 39 -95.001 39z" />
    <glyph glyph-name="nine" unicode="9" horiz-adv-x="572" 
d="M-5 -208c-28 0 -59 4.16895 -93 12.502s-51 19.166 -51 32.499c0 12 7 18 21 18c7.33301 0 13.666 -2.5 18.999 -7.5s10.333 -10.5 15 -16.5s15.334 -11.5 32.001 -16.5s38.667 -7.5 66 -7.5c98 0 194 53 288 159c79.333 89.333 138 192.333 176 309
c37.333 114.667 41 202.667 11 264c-22.667 44 -61.334 66.333 -116.001 67c-66 0 -123.333 -36.667 -172 -110c-42.667 -65.333 -65.667 -136 -69 -212c-3.33301 -75.333 16 -125 58 -149c15.333 -9.33301 33.333 -14 54 -14c34.667 0 65.167 11.167 91.5 33.5
s39.5 44.833 39.5 67.5c0 6.66699 -2.33301 14.667 -7 24s-7 17.333 -7 24c0 12 4.66699 20.667 14 26s18.666 5.5 27.999 0.5s14 -13.833 14 -26.5c0 -38 -19.333 -76.333 -58 -115s-81.667 -58 -129 -58c-76.667 0 -125.667 32.667 -147 98c-20 60 -13 130 21 210
c34 79.333 83.333 138.666 148 177.999c42 26 86 39 132 39c98.667 0 158.334 -41.667 179.001 -125c19.333 -78 2 -175 -52 -291c-53.333 -115.333 -125.666 -212 -216.999 -290c-96 -82.667 -192.333 -124 -289 -124z" />
    <glyph glyph-name="colon" unicode=":" horiz-adv-x="266" 
d="M138 372c11.333 0 21 -4 29 -12s12 -17.667 12 -29s-4.16699 -21 -12.5 -29s-17.833 -12 -28.5 -12s-20.167 4 -28.5 12s-12.5 17.667 -12.5 29s4 21 12 29s17.667 12 29 12zM78 78c10.667 0 20.167 -4 28.5 -12s12.5 -17.667 12.5 -29s-4.16699 -21 -12.5 -29
s-17.833 -12 -28.5 -12c-11.333 0 -21 4 -29 12s-12 17.667 -12 29s4 21 12 29s17.667 12 29 12z" />
    <glyph glyph-name="semicolon" unicode=";" horiz-adv-x="315" 
d="M189 372c11.333 0 21 -4 29 -12s12 -17.667 12 -29s-4 -21 -12 -29s-17.667 -12 -29 -12s-21 4 -29 12s-12 17.667 -12 29s4 21 12 29s17.667 12 29 12zM118 70c7.33301 0 15.501 -3.16504 24.501 -9.49805s13.5 -15.5 13.5 -27.5c0.666992 -34.667 -13 -67.5 -41 -98.5
s-56 -54.167 -84 -69.5c-6 -2.66699 -9.83301 -2.33398 -11.5 0.999023s-0.166992 6.66602 4.5 9.99902c24 14.667 41 29.667 51 45s14 28.333 12 39s-4.83301 23.167 -8.5 37.5s-4.83398 25.5 -3.50098 33.5c2.66699 26 17 39 43 39z" />
    <glyph glyph-name="less" unicode="&#x3c;" horiz-adv-x="516" 
d="M138 306c30.667 -16.667 59.3311 -33.834 85.998 -51.501s54.167 -39 82.5 -64s49.833 -52.333 64.5 -82s20 -59.5 16 -89.5c-0.666992 -6 -5.16699 -10.5 -13.5 -13.5s-16 -4.33301 -23 -4s-10.833 0.833008 -11.5 1.5c5.33301 30.667 0 61.334 -16 92.001
s-39.5 58.834 -70.5 84.501s-60.5 47.334 -88.5 65.001s-57.667 34.5 -89 50.5c-5.33301 2.66699 -2.33301 6 9 10c6 2 15 4.66699 27 8l45.5 11.5l53 13.5c10.333 2.66699 27.5 7.66699 51.5 15s42.833 13.833 56.5 19.5l53 23c21.667 9.66699 39.834 19.5 54.501 29.5
s30.334 21.667 47.001 35s31.667 27.666 45 42.999h42c-30 -39.333 -82.667 -76.333 -158 -111s-163 -63.334 -263 -86.001z" />
    <glyph glyph-name="equal" unicode="=" horiz-adv-x="653" 
d="M569 385h-411l12 34h412zM510 167h-411l12 34h412z" />
    <glyph glyph-name="greater" unicode="&#x3e;" horiz-adv-x="521" 
d="M99 17c-2 -5.33301 -7.50195 -9.33594 -16.502 -12.0029s-16.667 -3.66699 -23 -3s-9.83301 1.33398 -10.5 2.00098c59.333 114 189.666 212.667 390.999 296c-18.667 4 -37.667 9.83301 -57 17.5s-39.166 17.667 -59.499 30s-38.166 25.833 -53.499 40.5
s-27.166 32 -35.499 52s-10.833 41 -7.5 63h48c-0.666992 -20.667 3.83301 -40 13.5 -58s21.667 -33.167 36 -45.5s32.5 -24.166 54.5 -35.499s41.5 -20.166 58.5 -26.499s36.167 -12.833 57.5 -19.5c3.33301 -1.33301 0.333008 -4.33301 -9 -9
c-5.33301 -2.66699 -17.333 -8 -36 -16c-124 -55.333 -214.333 -109.666 -271 -162.999c-38 -36.667 -64.667 -74.334 -80 -113.001z" />
    <glyph glyph-name="question" unicode="?" horiz-adv-x="702" 
d="M610 1184c88.667 2 164.998 -22.6729 228.998 -74.0059s92.667 -119.666 86 -204.999c-4 -53.333 -19 -103.833 -45 -151.5s-56.5 -88 -91.5 -121s-77.667 -65.5 -128 -97.5s-96 -57.667 -137 -77l-138.5 -65c-51.333 -24 -89.333 -43 -114 -57
c-42.667 -24 -68 -47 -76 -69c-6.66699 -18 3.33301 -28 30 -30c14 -1.33301 15.333 -5.66602 4 -12.999c-16.667 -11.333 -35.667 -16 -57 -14c-12 0.666992 -20.667 5 -26 13c-12 16.667 -12 33.834 0 51.501s33 34.5 63 50.5l107.5 55l132 63
c46.333 21.333 92.833 46.833 139.5 76.5s89.334 61 128.001 94s71.5 72.167 98.5 117.5s43.5 93.333 49.5 144c10.667 90.667 -10.666 161.834 -63.999 213.501s-119 76.834 -197 75.501c-95.333 -2 -174.833 -32.667 -238.5 -92s-104.834 -138 -123.501 -236
c-16.667 -85.333 -0.333984 -152 48.999 -200c34.667 -33.333 73.334 -48 116.001 -44c40.667 3.33301 67.334 23.333 80.001 60c2 6 3.33301 12 4 18c3.33301 22 15 35.333 35 40c17.333 3.33301 29 -1.66699 35 -15c4.66699 -9.33301 4 -20.666 -2 -33.999
c-20 -46 -58.333 -75.333 -115 -88c-58.667 -12.667 -113.334 -3 -164.001 29c-64 40.667 -95.667 104.667 -95 192c0.666992 21.333 3 43.333 7 66c16.667 91.333 64.834 167.5 144.501 228.5s171.167 92.833 274.5 95.5zM145.998 72.9941c11.333 0 21.166 -4 29.499 -12
s12.5 -17.667 12.5 -29s-4.16699 -21 -12.5 -29s-18.166 -12 -29.499 -12c-10.667 0 -20.167 4.16699 -28.5 12.5s-12.5 17.833 -12.5 28.5s4.16699 20.167 12.5 28.5s17.833 12.5 28.5 12.5z" />
    <glyph glyph-name="at" unicode="@" horiz-adv-x="1119" 
d="M700 707c76 0.666992 142.498 -10.501 199.498 -33.501s101.333 -54.167 133 -93.5s54.834 -82.666 69.501 -129.999s21 -97.333 19 -150c-4 -106 -39.667 -200.5 -107 -283.5s-139.333 -120.167 -216 -111.5c-30.667 3.33301 -55.5 12.833 -74.5 28.5
s-31.833 33.334 -38.5 53.001s-9.83398 41.5 -9.50098 65.5s2.5 45 6.5 63s8.66699 34.667 14 50h-2c-16 -38 -43.667 -76.667 -83 -116s-79 -58 -119 -56c-41.333 2 -71.166 15.833 -89.499 41.5s-27.5 56.5 -27.5 92.5c0 50.667 15.667 106 47 166
s70.333 111.167 117 153.5s90.334 64.166 131.001 65.499c8.66699 0 17.834 -1.33301 27.501 -4s20.334 -8 32.001 -16s21.167 -21.167 28.5 -39.5s11 -40.833 11 -67.5c15.333 42.667 31.5 72.334 48.5 89.001s35.833 25.667 56.5 27
c11.333 0.666992 16.666 -1.33301 15.999 -6c-0.666992 -2 -1.66699 -3.33301 -3 -4c-20 -14 -37 -38.333 -51 -73s-37.333 -105 -70 -211c-4.66699 -14 -8.33398 -25.5 -11.001 -34.5s-6.33398 -23.333 -11.001 -43s-7.5 -36.167 -8.5 -49.5s-1 -28.833 0 -46.5
s4.33301 -32.167 10 -43.5s14.667 -21.5 27 -30.5s27.5 -14.5 45.5 -16.5c72.667 -8 133.334 24.667 182.001 98s74 160.333 76 261c1.33301 50 -4.83398 97.167 -18.501 141.5s-34.667 85 -63 122s-67.666 66.5 -117.999 88.5s-108.5 33.333 -174.5 34
c-78 0.666992 -151.167 -16 -219.5 -50s-125.166 -77.5 -170.499 -130.5s-82.333 -108.5 -111 -166.5s-47.334 -114.333 -56.001 -169c-10 -63.333 -6.5 -122 10.5 -176s43.667 -99 80 -135s79.5 -65.5 129.5 -88.5s102 -37.333 156 -43s108.167 -3.16699 162.5 7.5
s103.166 29.667 146.499 57c31.333 20 53.5 35.5 66.5 46.5s22.167 21.833 27.5 32.5s8.33301 16.334 9 17.001c8 11.333 16 14.333 24 9c9.33301 -6 10 -14.667 2 -26c-1.33301 -2.66699 -3.33301 -5.33398 -6 -8.00098c-116.667 -114.667 -247.667 -168.334 -393 -161.001
c-195.333 10 -332.333 71.667 -411 185c-61.333 89.333 -78.666 196.333 -51.999 321c25.333 116 82.666 219.333 171.999 310c103.333 105.333 224.333 166.333 363 183c22.667 2.66699 45.334 4 68.001 4zM512.998 30.999c37.333 -6 75.833 14.998 115.5 62.998
s70.5 103 92.5 165c22 58.667 31.333 105.167 28 139.5s-11 58.333 -23 72s-27 20.834 -45 21.501c-46 0 -94.333 -33.333 -145 -100c-50 -66 -81.667 -134.667 -95 -206c-14.667 -78.667 1 -128 47 -148c8 -3.33301 16.333 -5.66602 25 -6.99902z" />
    <glyph glyph-name="A" unicode="A" horiz-adv-x="1556" 
d="M2100 1179c28 0 50.1572 -4.34082 66.4902 -13.0078s22.5 -18.667 18.5 -30c-3.33301 -8 -9.5 -12.667 -18.5 -14s-17.5 0 -25.5 4c-21.333 10 -41.166 17.5 -59.499 22.5s-39 7.33301 -62 7s-45.833 -6.16602 -68.5 -17.499s-47 -27.666 -73 -48.999
s-53.333 -51.166 -82 -89.499s-58 -84.166 -88 -137.499c-54.667 -96.667 -143 -315 -265 -655c-24 -66 -35.667 -110 -35 -132c0 -27.333 11.667 -41.666 35 -42.999c30.667 -2 62.334 24 95.001 78c1.33301 3.33301 3.33301 4 6 2
c1.33301 -1.33301 1.66602 -3.33301 0.999023 -6c-11.333 -30 -29.666 -56.833 -54.999 -80.5s-52.333 -34.5 -81 -32.5c-18.667 1.33301 -33 7.33301 -43 18s-15.667 22.5 -17 35.5s-0.333008 28.667 3 47s6.66602 32.333 9.99902 42s7 19.5 11 29.5
c23.333 64.667 29.666 110.334 18.999 137.001c-30 72.667 -68 135.334 -114 188.001c-111.333 -146 -191.666 -246 -240.999 -300c-117.333 -128.667 -232 -210 -344 -244c-48 -14.667 -98 -22 -150 -22c-81.333 0 -154 15 -218 45s-114 68.667 -150 116
s-60.5 101.166 -73.5 161.499s-13 120.333 0 180s40 117.334 81 173.001s93.833 101.834 158.5 138.501c16 9.33301 27.667 8.66602 35 -2.00098c6.66699 -10 4.33398 -19 -6.99902 -27l-4 -2c-4.66699 -2 -11.667 -3.33301 -21 -4s-20.5 -4.5 -33.5 -11.5
s-29.167 -20.167 -48.5 -39.5c-28 -28 -51.5 -61.833 -70.5 -101.5s-31.667 -81.5 -38 -125.5s-7.66602 -89 -3.99902 -135s15.167 -89.667 34.5 -131s44.166 -78.166 74.499 -110.499s70 -58.166 119 -77.499s103.833 -29 164.5 -29c40.667 0 81 5.83301 121 17.5
s77.167 26.5 111.5 44.5s70.333 42.333 108 73s70.834 60.167 99.501 88.5s61.167 64 97.5 107s67 80.833 92 113.5l90.5 121c-60 63.333 -131.167 111.666 -213.5 144.999s-167.166 50 -254.499 50c-129.333 0 -231.666 -41.667 -306.999 -125
c-58 -63.333 -87.333 -136 -88 -218c-1.33301 -78.667 24.334 -140.667 77.001 -186c42.667 -36.667 97.667 -55 165 -55c48 0 80.333 14.333 97 43c7.33301 12.667 17.333 16 30 10c11.333 -6 13.666 -15 6.99902 -27c-1.33301 -2 -3 -4 -5 -6
c-23.333 -23.333 -66.666 -35 -129.999 -35c-102 0 -175.667 36 -221 108c-40 63.333 -49.667 137 -29 221c22 88 70.667 160 146 216c76 55.333 167.333 83 274 83c193.333 0 353 -62.333 479 -187c80.667 114.667 180 230.167 298 346.5s224.667 196.5 320 240.5
c-28.667 -9.33301 -65.834 -14.666 -111.501 -15.999s-89.667 -0.166016 -132 3.50098s-92.166 7.66699 -149.499 12s-104.666 6.5 -141.999 6.5c-104.667 0 -181.334 -32.333 -230.001 -97c-36 -48.667 -47.667 -101.334 -35 -158.001c12 -54 42 -91.667 90 -113
c22.667 -10 47.667 -15 75 -15c29.333 0 54.333 4.16699 75 12.5s36.167 19.666 46.5 33.999s17.833 28.166 22.5 41.499s7.33398 28 8.00098 44s7.66699 25 21 27c12 2 19.667 -3 23 -15c1.33301 -4 1.66602 -8.33301 0.999023 -13
c-2 -11.333 -6.66699 -24.166 -14 -38.499s-18.166 -30.333 -32.499 -48s-34.5 -32.334 -60.5 -44.001s-55.667 -17.5 -89 -17.5c-75.333 0 -129.666 27.667 -162.999 83c-30.667 49.333 -36.334 104 -17.001 164c20.667 64.667 64 112.334 130 143.001c44 20 94 30 150 30
c36.667 0 102.334 -4.16699 197.001 -12.5s167.334 -12.5 218.001 -12.5c44.667 0 97.334 7.83301 158.001 23.5s112 23.5 154 23.5zM1434.99 340.992c66 182.667 128.167 331.001 186.5 445.001s124.833 207.667 199.5 281c-75.333 -50 -160 -125.333 -254 -226
s-181 -205.334 -261 -314.001c50.667 -54 93.667 -116 129 -186z" />
    <glyph glyph-name="B" unicode="B" horiz-adv-x="1522" 
d="M1523 874c-0.666992 -61.333 -19.1738 -120.337 -55.5068 -177.004s-83.5 -103 -141.5 -139c45.333 -30.667 81.166 -70.5 107.499 -119.5s39.166 -106.167 38.499 -171.5c-0.666992 -58 -13.167 -111.5 -37.5 -160.5s-55.666 -88.833 -93.999 -119.5
s-80.666 -54.5 -126.999 -71.5s-92.833 -25.5 -139.5 -25.5c-60 0 -110.667 12.833 -152 38.5s-59.666 63.167 -54.999 112.5c4 40 21.167 68.333 51.5 85s62.5 25 96.5 25c9.33301 0 15.5 -3.33301 18.5 -10s2.66699 -13.334 -1 -20.001s-9.5 -10 -17.5 -10
c-2.66699 0 -8.5 2 -17.5 6s-16.167 6 -21.5 6c-26 0 -45 -15 -57 -45c-14.667 -35.333 -11.667 -69.666 9 -102.999c26.667 -43.333 76.667 -65 150 -65c56 0 106.667 12 152 36s81.333 54.833 108 92.5s46.834 80.334 60.501 128.001s19 94.667 16 141
s-14 90.833 -33 133.5s-45.167 77.334 -78.5 104.001c-65.333 -35.333 -132.666 -53 -201.999 -53c-43.333 0 -70.666 12.667 -81.999 38c-10 22 -4 42.333 18 61c23.333 18.667 55.333 28 96 28c59.333 0 115.666 -15.333 168.999 -46c48 33.333 87 75.833 117 127.5
s45.333 107.5 46 167.5c2.66699 164 -88.333 257.667 -273 281c-10 1.33301 -16.833 0.666016 -20.5 -2.00098s-6.83398 -8 -9.50098 -16c-2.66699 -7.33301 -23.667 -69.666 -63 -186.999l-121 -356c-41.333 -120 -70 -200.667 -86 -242
c-14.667 -37.333 -31 -73.666 -49 -108.999s-41.667 -73 -71 -113s-60.666 -74.5 -93.999 -103.5s-73 -53.167 -119 -72.5s-94.333 -29 -145 -29c-60.667 0 -115.167 7.66699 -163.5 23s-87.666 35.833 -117.999 61.5s-54.666 55.334 -72.999 89.001s-29.5 69 -33.5 106
s-2.16699 74.833 5.5 113.5s20.834 75 39.501 109s43.334 65.333 74.001 94s65 51.667 103 69c6 54 23.667 109 53 165s69.833 109.5 121.5 160.5s110.667 96.5 177 136.5s143.5 72 231.5 96s179.333 36 274 36c134 0 237.5 -28.833 310.5 -86.5
s108.833 -130.167 107.5 -217.5zM1101.99 1133c4.66699 13.333 0.666992 20.333 -12 21c-65.333 0 -131.166 -6.66699 -197.499 -20s-131.833 -34.666 -196.5 -63.999s-123.5 -65 -176.5 -107s-99 -94 -138 -156s-65.833 -130 -80.5 -204c34.667 10 72 15 112 15
c103.333 0 170 -29 200 -87c22 -42.667 20 -88.667 -6 -138c-24.667 -46.667 -61 -76.667 -109 -90c-14.667 -4.66699 -30 -7 -46 -7c-44 0 -82 13 -114 39s-55.167 58.167 -69.5 96.5s-21.5 79.5 -21.5 123.5c-41.333 -24 -76 -56.333 -104 -97s-47.667 -83.667 -59 -129
s-13.166 -91.333 -5.49902 -138s24 -88.834 49 -126.501s62.667 -68.334 113 -92.001s109.5 -35.5 177.5 -35.5c32.667 0 66.5 6.5 101.5 19.5s72.167 34.167 111.5 63.5s77.666 73 114.999 131s69.666 126.667 96.999 206c136.667 402.667 223 661.334 259 776.001z
M298.993 579.996c-3.33301 -42 -0.167969 -82.168 9.49902 -120.501s27.167 -70.666 52.5 -96.999s56.333 -39.5 93 -39.5c50.667 0 91.334 20.667 122.001 62c28.667 39.333 36.334 79.333 23.001 120c-16.667 50.667 -62.334 81 -137.001 91c-15.333 2 -32 3 -50 3
c-39.333 0 -77 -6.33301 -113 -19zM1112.99 510.995c58 0 114.332 16.333 168.999 49c-42 27.333 -91.333 41 -148 41c-39.333 0 -65.666 -11 -78.999 -33c-10.667 -17.333 -7.66699 -32.333 9 -45c12 -8 28.333 -12 49 -12z" />
    <glyph glyph-name="C" unicode="C" horiz-adv-x="930" 
d="M1035 1168c63.333 0 104.664 -26.3301 123.997 -78.9971c20.667 -56.667 11 -125 -29 -205c-48.667 -98.667 -129 -182.334 -241 -251.001c-158.667 -97.333 -351 -144.333 -577 -141c-20 -49.333 -31.333 -104.333 -34 -165s3.16602 -118.334 17.499 -173.001
s41.166 -100.5 80.499 -137.5s88 -55.5 146 -55.5c31.333 0 60.833 3 88.5 9s52.334 14.833 74.001 26.5s40.834 23.334 57.501 35.001s32.334 25.834 47.001 42.501l34 39.5c8 9.66699 16.667 22 26 37s14.666 23.167 15.999 24.5c5.33301 8 11 9.66699 17 5
c2.66699 -3.33301 3 -7.33301 1 -12c-12 -20 -22.5 -36.833 -31.5 -50.5s-25.167 -33.334 -48.5 -59.001s-47 -46.5 -71 -62.5s-55 -30.5 -93 -43.5s-78 -19.5 -120 -19.5c-56.667 0 -106.167 12.167 -148.5 36.5s-74.5 56.166 -96.5 95.499s-37.5 83.666 -46.5 132.999
s-10.667 99.666 -5 150.999s17.167 100.666 34.5 147.999c-98.667 12.667 -181.167 47.5 -247.5 104.5s-99.5 126.5 -99.5 208.5c0 58 15.833 116.833 47.5 176.5s76.334 114.834 134.001 165.501s132.5 92 224.5 124s192.333 48 301 48
c22.667 0 35.334 -7.33301 38.001 -22c2.66699 -12 -2.33301 -20.667 -15 -26c-9.33301 -4 -19.666 -3.33301 -30.999 2c-29.333 11.333 -62 17 -98 17c-42.667 0 -88 -6.33301 -136 -19s-96.167 -32.334 -144.5 -59.001s-91.833 -58.5 -130.5 -95.5
s-70.167 -82.667 -94.5 -137s-36.5 -112.5 -36.5 -174.5c0 -71.333 28 -134.166 84 -188.499s127 -88.166 213 -101.499c44 105.333 109.667 208 197 308s183 181.667 287 245s199 95 285 95zM985.998 1131c-66.667 0 -144.332 -28.333 -232.999 -85
s-173.5 -133.5 -254.5 -230.5s-140.5 -197.167 -178.5 -300.5c233.333 -2 428.666 50.667 585.999 158c98.667 66.667 166 142.667 202 228c30.667 72 31 130.333 1 175c-24 36.667 -65 55 -123 55z" />
    <glyph glyph-name="D" unicode="D" horiz-adv-x="1474" 
d="M842 1189c87.333 0 167.666 -11.832 240.999 -35.499s134.833 -54.667 184.5 -93s91.834 -82.333 126.501 -132s59.834 -100 75.501 -151s23.5 -101.833 23.5 -152.5c0 -120.667 -27 -235.167 -81 -343.5s-129.333 -196.333 -226 -264s-202 -101.5 -316 -101.5
c-35.333 0 -73.333 7 -114 21s-74.167 28.5 -100.5 43.5s-60.833 35.833 -103.5 62.5c-74.667 -80.667 -156.667 -121 -246 -121c-80 0 -135 22 -165 66c-22.667 34 -23.334 68.667 -2.00098 104c25.333 42 71 65.667 137 71l25 1c64 0 144.667 -30 242 -90
c26.667 37.333 51.667 84.666 75 141.999c-148.667 -14.667 -270.167 19 -364.5 101s-141.5 184.333 -141.5 307c0 67.333 17.5 134.5 52.5 201.5s83.333 127.5 145 181.5s139.167 97.833 232.5 131.5s193.333 50.5 300 50.5zM163 622.001c0 -52.667 9.5 -103.333 28.5 -152
s46.5 -92.667 82.5 -132s84.333 -69 145 -89s129 -25.667 205 -17c22.667 53.333 68.334 192 137.001 416s117.334 391 146.001 501c2.66699 13.333 -3.66602 20.333 -18.999 21c-88.667 4 -172.334 -3.66699 -251.001 -23s-146.334 -47 -203.001 -83
s-105.834 -78 -147.501 -126s-72.667 -99 -93 -153s-30.5 -108.333 -30.5 -163zM305 -61.998c90.667 0 165.666 39.333 224.999 118c-49.333 30.667 -91.666 54 -126.999 70s-69.333 24 -102 24c-57.333 0 -97.333 -19.333 -120 -58c-19.333 -32.667 -19.333 -65 0 -97
c22.667 -38 64 -57 124 -57zM869.999 -66.998c79.333 0 154.333 19.9961 225 59.9961s130.167 92.333 178.5 157s86.666 138.334 114.999 221.001s42.5 166.334 42.5 251.001c0 138.667 -39.667 256.334 -119 353.001s-187.666 157.667 -324.999 183
c-10.667 2 -18.667 -5.33301 -24 -22c-2 -6 -24.5 -81 -67.5 -225l-130.5 -423.5c-44 -138.333 -73 -220.166 -87 -245.499c68.667 16.667 125.5 44.167 170.5 82.5s67.5 75.166 67.5 110.499c0 10 3.83301 17.333 11.5 22s15.5 5.16699 23.5 1.5s12 -11.167 12 -22.5
c0 -26 -28.667 -63 -86 -111s-126.333 -81.333 -207 -100c-33.333 -68 -68 -123.333 -104 -166c36.667 -23.333 62.167 -39.166 76.5 -47.499s36.833 -20.5 67.5 -36.5s58.5 -27 83.5 -33s50.5 -9 76.5 -9z" />
    <glyph glyph-name="E" unicode="E" horiz-adv-x="797" 
d="M848 1171c72 0 115.662 -22.3291 130.995 -66.9961c14.667 -44 -1 -94.333 -47 -151c-59.333 -74.667 -148 -132 -266 -172c-70.667 -24 -147 -39 -229 -45c12 -36 37.167 -61.667 75.5 -77s72.166 -19 101.499 -11c4 0.666992 7.33301 0.833984 10 0.500977
s4 -1.33301 4 -3s-1 -3.83398 -3 -6.50098c-7.33301 -7.33301 -21.666 -12.333 -42.999 -15c-175.333 -18.667 -305.666 -79.667 -390.999 -183c-61.333 -74.667 -89 -156.667 -83 -246c5.33301 -78 35.333 -139 90 -183c39.333 -32 86 -49 140 -51
c-14 78.667 -6.66699 158.834 22 240.501s70.834 148.5 126.501 200.5s113.5 78 173.5 78c55.333 0 89.666 -27 102.999 -81c14.667 -57.333 3 -124 -35 -200c-43.333 -88 -105.666 -155.333 -186.999 -202c-55.333 -31.333 -115 -49.333 -179 -54
c22 -86.667 73.667 -159 155 -217c4 -2.66699 5.66699 -5.83398 5 -9.50098s-2.66699 -6.16699 -6 -7.5s-7 -1 -11 1c-86 58.667 -140.333 136 -163 232c-90 -2.66699 -161.5 21.666 -214.5 72.999s-79.5 113 -79.5 185c0 40 7.16699 78.5 21.5 115.5s32.833 69.333 55.5 97
s48.5 53.5 77.5 77.5s57.833 44 86.5 60s56.167 29.833 82.5 41.5s48.333 20.167 66 25.5s29.834 8 36.501 8c-24.667 5.33301 -45.834 17.666 -63.501 36.999s-29.834 43 -36.501 71c-81.333 -1.33301 -161 12.167 -239 40.5s-142.167 68.333 -192.5 120
s-75.5 107.834 -75.5 168.501c0 40.667 9 77.834 27 111.501s41.333 61.667 70 84s61.5 41.166 98.5 56.499s74.333 26.333 112 33s74.834 10 111.501 10c73.333 0 121.666 -4.66699 144.999 -14c10.667 -4 16.834 -10.333 18.501 -19s-1.16602 -15.667 -8.49902 -21
s-16.666 -6 -27.999 -2c-4.66699 2 -9.83398 5.66699 -15.501 11s-11.167 10.166 -16.5 14.499s-16.166 8.16602 -32.499 11.499s-37.5 5 -63.5 5c-106 0 -194.167 -24.667 -264.5 -74s-105.5 -116.333 -105.5 -201c0 -62.667 22.5 -119 67.5 -169
s101.833 -87.833 170.5 -113.5s141.334 -38.167 218.001 -37.5c-6 44.667 6.16699 92.667 36.5 144s69.5 97.166 117.5 137.499s101.667 74 161 101s113.333 40.5 162 40.5zM643.995 445.004c-35.333 0 -72.5 -14.5 -111.5 -43.5s-73.167 -65.833 -102.5 -110.5
s-51.333 -97 -66 -157s-16.667 -117.667 -6 -173c103.333 2.66699 193.333 46.667 270 132c57.333 63.333 92.333 131.333 105 204c11.333 66 -1 110.667 -37 134c-14.667 9.33301 -32 14 -52 14zM433.995 750.004c158 11.333 287.001 56.668 387.001 136.001
c64 50.667 101 102.667 111 156c8.66699 46.667 -7 78.334 -47 95.001c-16.667 7.33301 -36.667 11 -60 11c-28 0 -60.167 -6.33301 -96.5 -19s-72.833 -31.334 -109.5 -56.001s-69.834 -52.834 -99.501 -84.501s-52.667 -68.5 -69 -110.5s-21.833 -84.667 -16.5 -128z" />
    <glyph glyph-name="F" unicode="F" horiz-adv-x="1289" 
d="M1591 1171c63.333 0 103.335 -16.665 120.002 -49.998c13.333 -26.667 7.66602 -52.334 -17.001 -77.001c-26.667 -27.333 -66 -41 -118 -41c-68 0 -160.333 19.667 -277 59c-34.667 -27.333 -66.5 -59.833 -95.5 -97.5s-56.167 -82.5 -81.5 -134.5
s-45.666 -97.167 -60.999 -135.5s-35 -90.5 -59 -156.5c5.33301 1.33301 16.666 4.5 33.999 9.5l36.5 10.5l34 9.5c15.667 4.33301 28.5 7.33301 38.5 9l36 6c14 2.33301 27.5 4 40.5 5s26.167 1.5 39.5 1.5c29.333 0 51.5 -5.66699 66.5 -17s22.667 -25.333 23 -42
s-2.33398 -32.834 -8.00098 -48.501s-12.834 -29.167 -21.501 -40.5c-16 -18 -32.667 -27 -50 -27c-4 0 -7 1.33301 -9 4s-2 6 0 10c66 86 48 129 -54 129c-46.667 0 -117.667 -13.333 -213 -40c-57.333 -158 -105 -271.667 -143 -341
c-77.333 -138.667 -172.666 -227.667 -285.999 -267c-51.333 -18 -107.333 -27 -168 -27c-61.333 0 -116.5 8.5 -165.5 25.5s-88.667 39.833 -119 68.5s-53.333 61.167 -69 97.5s-23.5 74.5 -23.5 114.5c0 44 9.33301 87.667 28 131s44.5 82.5 77.5 117.5
s74.833 63.333 125.5 85s105.667 32.5 165 32.5c14.667 0 22.334 -6 23.001 -18c1.33301 -11.333 -4.33398 -18 -17.001 -20c-4 -0.666992 -8.66699 -0.333984 -14 0.999023c-6 1.33301 -11.833 3.33301 -17.5 6s-11.5 4.66699 -17.5 6s-14.333 2 -25 2
c-66 0 -128.5 -34.5 -187.5 -103.5s-88.5 -146.167 -88.5 -231.5c0 -38.667 6.5 -75.334 19.5 -110.001s32.167 -66 57.5 -94s59.333 -50.333 102 -67s91.334 -25 146.001 -25c44 0 85.167 6 123.5 18s72 27.333 101 46s57 44 84 76s49.833 63.167 68.5 93.5
s38.334 68.166 59.001 113.499s37.834 85.5 51.501 120.5l48.5 129.5c0.666992 2.66699 1.33398 4.66699 2.00098 6c-36.667 -8 -70 -12 -100 -12c-34.667 0 -64.667 6.5 -90 19.5s-43.833 29.667 -55.5 50s-19.5 40.5 -23.5 60.5s-4.33301 39 -1 57
c0.666992 5.33301 2.66699 8.83301 6 10.5s6.16602 1.5 8.49902 -0.5s3.5 -5.33301 3.5 -10c0.666992 -7.33301 0.666992 -17.5 0 -30.5s2 -27.5 8 -43.5s13.667 -31 23 -45s24.666 -25.833 45.999 -35.5s46.666 -14.5 75.999 -14.5c32.667 0 68 4.33301 106 13
c24.667 67.333 45.667 121.5 63 162.5s39.666 88.667 66.999 143s57.166 101.5 89.499 141.5s67.833 74.333 106.5 103c-60.667 20.667 -103.334 34.834 -128.001 42.501s-65.167 19.167 -121.5 34.5s-109.833 26 -160.5 32s-103.667 9 -159 9
c-174.667 0 -315 -45.333 -421 -136c-73.333 -62.667 -116.666 -133.667 -129.999 -213c-11.333 -72.667 5.66699 -131 51 -175c27.333 -26.667 63 -44 107 -52c6 -0.666992 9 -2.66699 9 -6c-0.666992 -2 -2 -3.33301 -4 -4c-50 -15.333 -98.5 -3.66602 -145.5 35.001
s-70.5 90 -70.5 154c0 37.333 8 75.333 24 114s41 76.334 75 113.001s74.333 69.5 121 98.5s103.334 52.167 170.001 69.5s138.334 26 215.001 26c67.333 0 138.833 -7.16699 214.5 -21.5s132.667 -27.5 171 -39.5s96.5 -31.667 174.5 -59
c4 -1.33301 7.16699 -2.33301 9.5 -3s5.16602 -1.66699 8.49902 -3s6.33301 -2.33301 9 -3c84.667 57.333 185.667 86 303 86zM1576 1017c46 0 77.333 14.999 94 44.999c14 24.667 12 47.334 -6 68.001c-16 18 -40.667 27 -74 27c-106 0 -197 -27.333 -273 -82
c112.667 -38.667 199 -58 259 -58z" />
    <glyph glyph-name="G" unicode="G" horiz-adv-x="941" 
d="M966 502c11.333 0 16.6699 -1.66406 16.0029 -4.99707l-3 -5c-26.667 -21.333 -49.667 -60 -69 -116c-2.66699 -7.33301 -29.5 -85.166 -80.5 -233.499l-96.5 -277.5c-28.667 -78.667 -63.834 -147.334 -105.501 -206.001s-85.667 -104.167 -132 -136.5
s-92.166 -56.166 -137.499 -71.499s-90.333 -23 -135 -23c-77.333 0 -142 17.667 -194 53s-78 81 -78 137c0 43.333 12 79.5 36 108.5s54.5 50 91.5 63s79.167 24.833 126.5 35.5s92.666 19.334 135.999 26.001s84.833 18.167 124.5 34.5s69.167 36.833 88.5 61.5
c3.33301 4 6 3.66699 8 -1c2 -3.33301 1.33301 -7.33301 -2 -12c-12.667 -21.333 -32.834 -39.166 -60.501 -53.499s-58.334 -25.333 -92.001 -33s-69.5 -14.834 -107.5 -21.501s-74.5 -14.334 -109.5 -23.001s-66.833 -19.834 -95.5 -33.501s-51.667 -33 -69 -58
s-26 -55.167 -26 -90.5c0 -48.667 19.667 -90.167 59 -124.5s94 -51.5 164 -51.5c88.667 0 172.334 31.5 251.001 94.5s142 159.5 190 289.5l73.5 203.5c22.333 63 37.833 107.833 46.5 134.5l13 40h-4c-11.333 -16.667 -23.666 -33.334 -36.999 -50.001
s-32.166 -37.167 -56.499 -61.5s-49 -45.666 -74 -63.999s-54.333 -34 -88 -47s-66.834 -19.5 -99.501 -19.5c-84 0 -150.833 31.333 -200.5 94s-74.5 146.667 -74.5 252c0 70.667 16.333 149.334 49 236.001c-40.667 23.333 -71.667 54.166 -93 92.499
s-32.666 78.833 -33.999 121.5s7.66699 86.5 27 131.5s46.666 86.333 81.999 124s81.666 70.167 138.999 97.5s121 45 191 53c12 1.33301 21 -1.33398 27 -8.00098s7.16699 -13.834 3.5 -21.501s-11.834 -12.5 -24.501 -14.5c-6.66699 -1.33301 -23 -0.333008 -49 3
s-53 1 -81 -7c-70 -18 -129.833 -51.5 -179.5 -100.5s-82.834 -101.167 -99.501 -156.5s-17.167 -110.833 -1.5 -166.5s48.834 -98.834 99.501 -129.501c30.667 76.667 71.667 152.167 123 226.5s107.333 140.833 168 199.5s125.5 106 194.5 142s134.167 54 195.5 54
c72.667 0 114.334 -31.333 125.001 -94c11.333 -65.333 -10.667 -145 -66 -239c-59.333 -102 -137.666 -186 -234.999 -252c-101.333 -68.667 -205.333 -103 -312 -103c-58.667 0 -109.334 8 -152.001 24c-26 -76.667 -39 -148.667 -39 -216
c0 -94 18.833 -170.5 56.5 -229.5s92.167 -88.5 163.5 -88.5c80 0 159.5 36.667 238.5 110s138.167 168.333 177.5 285c27.333 78 63.666 117 108.999 117zM893.004 1159c-74 0 -153.334 -30.1689 -238.001 -90.502s-161.5 -137.666 -230.5 -231.999
s-121.833 -192.166 -158.5 -293.499c40.667 -16 89.334 -24 146.001 -24c129.333 0 252.333 50.667 369 152c86 74.667 149 158.667 189 252c37.333 86 42.333 150.667 15 194c-18 28 -48.667 42 -92 42z" />
    <glyph glyph-name="H" unicode="H" horiz-adv-x="1632" 
d="M2171 1179c31.333 0 55.4883 -4.00391 72.4883 -12.0039s23.167 -18 18.5 -30c-2.66699 -8 -8.5 -12.667 -17.5 -14s-17.5 0 -25.5 4c-25.333 11.333 -49.333 19 -72 23s-48.834 3 -78.5 -3c-29.667 -6 -58.5 -18.833 -86.5 -38.5s-59.167 -50.167 -93.5 -91.5
s-68.833 -93 -103.5 -155c-29.333 -53.333 -70.5 -147 -123.5 -281s-100.167 -258.667 -141.5 -374c-24.667 -68 -36 -113.333 -34 -136c2.66699 -24 14.334 -37 35.001 -39c30 -2 61.333 24 94 78c1.33301 2.66699 3.16602 3.5 5.49902 2.5s2.83301 -3.16699 1.5 -6.5
c-10.667 -30 -28.667 -56.833 -54 -80.5s-52.666 -34.5 -81.999 -32.5c-64 4 -76.333 60.667 -37 170c0.666992 0.666992 1 1.33398 1 2.00098c13.333 40 21.333 69.5 24 88.5s1 35.833 -5 50.5c-57.333 146 -154.333 254.667 -291 326
c-47.333 -153.333 -80.666 -255 -99.999 -305c-64 -162.667 -144 -274.667 -240 -336c-68 -43.333 -147.667 -65 -239 -65c-81.333 0 -154.166 15 -218.499 45s-114.333 68.667 -150 116s-60 101.166 -73 161.499s-13.167 120.333 -0.5 180s39.5 117.334 80.5 173.001
s93.833 101.834 158.5 138.501c16.667 9.33301 28.667 8.66602 36 -2.00098c6.66699 -10 4.33398 -19 -6.99902 -27l-4 -2c-4.66699 -2 -11.834 -3.33301 -21.501 -4s-21 -4.5 -34 -11.5s-28.833 -19.833 -47.5 -38.5c-33.333 -32.667 -59.833 -73.167 -79.5 -121.5
s-31.667 -98.666 -36 -150.999s0.666992 -104.666 15 -156.999s36.5 -99.333 66.5 -141s72.167 -75.5 126.5 -101.5s116.833 -39 187.5 -39c46 0 88.833 6.66699 128.5 20s74.5 31.333 104.5 54s57.833 50.5 83.5 83.5s48 67.833 67 104.5s37 76.834 54 120.501
s32.167 86.5 45.5 128.5l40 131c2.66699 9.33301 4.83398 16.666 6.50098 21.999s3.66699 12.166 6 20.499l6.5 22.5c-82.667 36.667 -166.667 55 -252 55c-131.333 0 -236 -42 -314 -126c-59.333 -63.333 -90.666 -136 -93.999 -218
c-2.66699 -78.667 21.666 -140.334 72.999 -185.001c42 -37.333 96.667 -56 164 -56c48 0 80.333 14.333 97 43c7.33301 12.667 17.333 16 30 10c11.333 -6 13.666 -15 6.99902 -27c-1.33301 -2 -3 -4 -5 -6c-22 -23.333 -65.333 -35 -130 -35c-102 0 -175.667 36 -221 108
c-39.333 63.333 -49 137 -29 221c22 88 70.667 160 146 216c76.667 56 168.334 84 275.001 84c98 0 186.333 -16 265 -48c30 95.333 60.333 171.833 91 229.5s68.667 97.167 114 118.5c-34 -2 -69.667 4 -107 18s-73.333 32 -108 54l-104.5 66.5
c-35 22.333 -73 41.333 -114 57s-80.833 23.5 -119.5 23.5c-32.667 0 -62.667 -6.5 -90 -19.5s-48.666 -29.833 -63.999 -50.5s-27.166 -43.667 -35.499 -69s-10 -50.666 -5 -75.999s14.333 -48.333 28 -69s34.834 -37.5 63.501 -50.5s62.334 -19.5 101.001 -19.5
c15.333 0 29 1.16699 41 3.5s21.333 5.16602 28 8.49902s12.834 7.83301 18.501 13.5s9.5 10 11.5 13s4.16699 7.66699 6.5 14s3.83301 9.83301 4.5 10.5c6 11.333 14.667 14.333 26 9s13.666 -15 6.99902 -29c-0.666992 -1.33301 -1.66699 -2.66602 -3 -3.99902
c-12 -17.333 -30.5 -31.333 -55.5 -42s-53.833 -16 -86.5 -16c-42.667 0 -80 7.16699 -112 21.5s-55.5 33 -70.5 56s-25.333 48.5 -31 76.5s-3.83398 56 5.49902 84s22.5 53.5 39.5 76.5s40.667 41.667 71 56s63.5 21.5 99.5 21.5c39.333 0 78.666 -6.66699 117.999 -20
s74 -29.5 104 -48.5l97 -59.5c34.667 -20.667 66.834 -38.667 96.501 -54s63.667 -26 102 -32s76.166 -3.33301 113.499 8c6.66699 2 11.834 1.5 15.501 -1.5s4.83398 -6.66699 3.50098 -11s-4.66602 -7.16602 -9.99902 -8.49902
c-25.333 -6.66699 -48.833 -18.334 -70.5 -35.001s-40.667 -35.834 -57 -57.501s-32.333 -48.667 -48 -81s-29 -63.666 -40 -93.999s-23.167 -66.166 -36.5 -107.499c38 -18 74 -39.833 108 -65.5s61.5 -49.334 82.5 -71.001s41.667 -47.167 62 -76.5
s34.333 -50.666 42 -63.999s16.834 -30.333 27.501 -51l42.5 106l47.5 120l51.5 122.5c20.333 47 40.333 88.333 60 124s42 73.334 67 113.001s51.333 73.667 79 102s57.334 54.5 89.001 78.5s66.334 42 104.001 54s77.167 18 118.5 18z" />
    <glyph glyph-name="I" unicode="I" horiz-adv-x="1032" 
d="M485 -48c-82 0 -154.67 14.3311 -218.003 42.998s-112.666 65.834 -147.999 111.501s-59.166 98 -71.499 157s-11.833 118 1.5 177s40.666 117.333 81.999 175s94.666 106.834 159.999 147.501c20 12.667 34.333 12.667 43 0c6.66699 -10.667 5.66699 -20 -3 -28
c-4 -2.66699 -8.33301 -4.33398 -13 -5.00098c-1.33301 0 -5 -0.333008 -11 -1s-10.667 -1.33398 -14 -2.00098s-8.16602 -1.83398 -14.499 -3.50098s-12.333 -4.16699 -18 -7.5s-12.167 -7.83301 -19.5 -13.5s-15.166 -12.834 -23.499 -21.501s-17.166 -18.667 -26.499 -30
c-30 -38.667 -53.333 -82.5 -70 -131.5s-25.834 -98.5 -27.501 -148.5s5.5 -98.833 21.5 -146.5s39 -90 69 -127s70.833 -66.833 122.5 -89.5s110.167 -34 175.5 -34c68.667 0 129.834 13.167 183.501 39.5s97.334 61.333 131.001 105s64.167 94.334 91.5 152.001
s49.5 117.334 66.5 179.001s35.5 124.5 55.5 188.5l57.5 177c18.333 54 42.833 103 73.5 147s65.334 76.667 104.001 98c-42.667 -9.33301 -91.334 -11.666 -146.001 -6.99902s-102.667 11.5 -144 20.5s-85.833 18 -133.5 27s-85.5 13.5 -113.5 13.5
c-87.333 0 -155.333 -32.333 -204 -97c-40 -54.667 -56 -115.334 -48 -182.001c8.66699 -68.667 41.667 -119.667 99 -153c37.333 -21.333 81.666 -32 132.999 -32c11.333 0 22.166 0.5 32.499 1.5s19.5 2.33301 27.5 4s15.5 4 22.5 7l18 8
c5 2.33301 9.83301 5.33301 14.5 9s8.33398 6.66699 11.001 9s5.5 5.5 8.5 9.5s4.83301 6.83301 5.5 8.5s2 4.16699 4 7.5l3 5c5.33301 8 12 12 20 12s13.333 -3.33301 16 -10s0.666992 -15 -6 -25c-15.333 -20.667 -39.166 -36.667 -71.499 -48s-67.833 -17 -106.5 -17
c-102.667 0 -176.334 34.667 -221.001 104c-36.667 56.667 -45.667 121 -27 193c18 71.333 57.667 126 119 164c44 27.333 94.333 41 151 41c38.667 0 82.667 -4.83301 132 -14.5s93 -18.834 131 -27.501s88.833 -14.167 152.5 -16.5s129.167 3.5 196.5 17.5
c12 2.66699 18.333 0 19 -8c-0.666992 -5.33301 -4.33398 -9.33301 -11.001 -12c-36.667 -10 -69.667 -31 -99 -63s-54.166 -70.667 -74.499 -116s-39.5 -96.166 -57.5 -152.499l-54.5 -174c-18.333 -59.667 -38 -119 -59 -178s-46.333 -114.667 -76 -167
s-63.167 -98.666 -100.5 -138.999s-83.5 -72.166 -138.5 -95.499s-116.5 -35 -184.5 -35z" />
    <glyph glyph-name="J" unicode="J" horiz-adv-x="1109" 
d="M1429 1154c-41.333 -44 -80.3311 -99.667 -116.998 -167s-68.834 -137.833 -96.501 -211.5s-55.167 -152.5 -82.5 -236.5l-82 -247.5c-27.333 -81 -56.5 -160.833 -87.5 -239.5s-66 -151 -105 -217s-82 -124.167 -129 -174.5s-102.333 -89.666 -166 -117.999
s-133.167 -42.5 -208.5 -42.5c-118.667 0 -208.334 38.667 -269.001 116c-52.667 67.333 -72.334 147.666 -59.001 240.999c14 100.667 63 188 147 262c115.333 101.333 271 152 467 152c62.667 0 125.667 -7.33301 189 -22c21.333 -4.66699 31.666 -14 30.999 -28
c0 -11.333 -7 -18.333 -21 -21c-8.66699 -2 -18 -0.666992 -28 4c-1.33301 0.666992 -6.83301 4.33398 -16.5 11.001s-19.334 12.334 -29.001 17.001s-26 9.33398 -49 14.001s-49.5 7 -79.5 7c-189.333 0 -335.666 -50.667 -438.999 -152
c-74.667 -72.667 -114.667 -157.667 -120 -255c-6 -88.667 18 -163.334 72 -224.001c55.333 -62 129.666 -93 222.999 -93c66 0 126.333 11.333 181 34s102 54.667 142 96s76.333 89.333 109 144s62.334 116 89.001 184s51.667 137.5 75 208.5l73.5 225
c25.667 79 51.667 154.833 78 227.5s58.166 146.334 95.499 221.001s77 141.334 119 200.001c-47.333 -33.333 -103.666 -63.333 -168.999 -90s-123.833 -48 -175.5 -64s-101.167 -34.167 -148.5 -54.5s-84.166 -46.833 -110.499 -79.5s-39.5 -73.334 -39.5 -122.001
c0 -44 15 -80 45 -108s70.667 -42 122 -42c10 0 19.667 0.666992 29 2s17.666 3 24.999 5s14.5 4.83301 21.5 8.5s12.833 7 17.5 10s9.66699 7.16699 15 12.5l12 12c2.66699 2.66699 5.83398 6.83398 9.50098 12.501s6 9.5 7 11.5l5.5 11l4 7c8.66699 16 19.667 21 33 15
c11.333 -6 14 -15.333 8 -28c0 -1.33301 -0.333008 -2.33301 -1 -3c-16.667 -28.667 -44.167 -51.667 -82.5 -69s-78.5 -26 -120.5 -26c-57.333 0 -103.833 15.667 -139.5 47s-53.5 72.333 -53.5 123c0 40.667 9.5 76.167 28.5 106.5s45 55.166 78 74.499
s69.833 36.666 110.5 51.999s84.667 30.5 132 45.5s93 30.667 137 47s87.5 37.666 130.5 63.999s78.833 56.166 107.5 89.499c18.667 22 36.334 33 53.001 33c9.33301 0 11.333 -4.33301 6 -13c-0.666992 -1.33301 -2 -3 -4 -5z" />
    <glyph glyph-name="K" unicode="K" horiz-adv-x="1375" 
d="M1193 1013c-30 -6.66699 -58.1719 -27.3311 -84.5049 -61.998s-49.5 -77.167 -69.5 -127.5s-41.167 -106.833 -63.5 -169.5s-43.833 -126 -64.5 -190s-45.834 -126.5 -75.501 -187.5s-61 -115 -94 -162s-73.333 -84.833 -121 -113.5s-99.5 -43 -155.5 -43
c-93.333 0 -155.333 25.667 -186 77c-24 39.333 -24 80.666 0 123.999c24 45.333 63.667 74.333 119 87c27.333 6 56 7 86 3c14 -2 21 -8 21 -18c-0.666992 -10 -6 -16 -16 -18c-4.66699 -0.666992 -9.33398 0 -14.001 2c-2 0.666992 -5.33301 2.83398 -10 6.50098
s-10 6.5 -16 8.5s-13 3 -21 3c-40 0 -71.333 -19 -94 -57c-23.333 -38.667 -27.333 -77.334 -12 -116.001c20 -50.667 67 -77.334 141 -80.001h12c52 0 98.167 13 138.5 39s73.833 61.5 100.5 106.5s50.667 95.667 72 152s42.333 117.5 63 183.5
s41.834 129.833 63.501 191.5s49.167 123.5 82.5 185.5s70.666 114.333 111.999 157c-36 -8.66699 -78 -11.5 -126 -8.5s-89 8 -123 15s-78.667 14 -134 21s-108.666 10.5 -159.999 10.5c-64.667 0 -123.167 -19.333 -175.5 -58s-92.5 -87.167 -120.5 -145.5
s-43 -118.833 -45 -181.5c-3.33301 -89.333 23.834 -167 81.501 -233s135.5 -99 233.5 -99c23.333 0 44.833 1.33301 64.5 4s36.5 7.16699 50.5 13.5s25.833 12 35.5 17s18.667 12.667 27 23l17.5 21.5c3.33301 4 7.83301 11.667 13.5 23s8.83398 17.333 9.50098 18
c8.66699 14.667 20 19.334 34 14.001c12 -5.33301 15.333 -14.333 10 -27c-0.666992 -2.66699 -2 -5 -4 -7c-28.667 -38.667 -65.834 -67.667 -111.501 -87s-94.167 -29 -145.5 -29c-107.333 0 -197.5 35.167 -270.5 105.5s-107.833 150.833 -104.5 241.5
c2.66699 66 21.5 129.667 56.5 191s83.333 112 145 152s127.834 60 198.501 60c58.667 0 117.834 -4.16699 177.501 -12.5s107.334 -16 143.001 -23s79.834 -9.5 132.501 -7.5s108.667 11.667 168 29c12.667 3.33301 19.334 0.666016 20.001 -8.00098
c0.666992 -8 -3.33301 -13 -12 -15zM2087 -548.997c5.33301 9.33301 11.9971 12.0039 19.9971 8.00391c8.66699 -5.33301 10.334 -14 5.00098 -26c-7.33301 -12.667 -24 -23.667 -50 -33s-53.333 -14 -82 -14c-68 0 -133.167 11 -195.5 33s-117.166 50.833 -164.499 86.5
s-92.833 78.5 -136.5 128.5s-81.334 100.667 -113.001 152s-62.834 106.333 -93.501 165s-56.334 112 -77.001 160l-64.5 143.5c-22.333 47.667 -40.833 84.167 -55.5 109.5c-29.333 -9.33301 -56.666 -14 -81.999 -14c-33.333 0 -54.333 11.333 -63 34
c-8 19.333 -2.66699 36.333 16 51c14 10.667 32.333 16 55 16c30.667 0 62.334 -19.667 95.001 -59c40 18 82.833 47 128.5 87s89.5 84.167 131.5 132.5l129 154.5l131 157.5c43.333 50.333 85.833 96.166 127.5 137.499s84.334 74.333 128.001 99s84.834 37 123.501 37
c13.333 0 22.5 -4.5 27.5 -13.5s4.5 -17.833 -1.5 -26.5s-16 -13 -30 -13c-1.33301 0 -11.333 3.16699 -30 9.5s-36 7.16602 -52 2.49902c-38.667 -12 -83.667 -43 -135 -93s-103.166 -107.833 -155.499 -173.5l-160.5 -199.5c-54.667 -67.333 -113 -130.333 -175 -189
s-120.333 -100 -175 -124c20.667 -26.667 44.167 -63.334 70.5 -110.001s51.333 -94.5 75 -143.5s51.167 -102.333 82.5 -160s62.666 -112.5 93.999 -164.5s67.333 -102.667 108 -152s82.167 -91.833 124.5 -127.5s90.5 -64.334 144.5 -86.001s110 -32.5 168 -32.5
c50 0 85.667 16.667 107 50zM997.992 367.007c24 0 48 4 72 12c-24 38 -46 57 -66 57c-22 0 -37.333 -5.66699 -46 -17s-9 -22.833 -1 -34.5s21.667 -17.5 41 -17.5z" />
    <glyph glyph-name="L" unicode="L" horiz-adv-x="892" 
d="M1694 -125c7.33301 16 17.667 21.666 31 16.999c11.333 -4 16 -11.667 14 -23c-0.666992 -1.33301 -1.33398 -3 -2.00098 -5c-54.667 -102.667 -128.167 -180.5 -220.5 -233.5s-196.833 -79.5 -313.5 -79.5c-44 0 -89.333 5.83301 -136 17.5
s-88.334 25.334 -125.001 41.001s-78.5 37.5 -125.5 65.5s-84.5 51.833 -112.5 71.5l-113 80.5l-101 72c-75.333 -62.667 -164.333 -94 -267 -94c-76 0 -129.333 20 -160 60c-24 30.667 -26 62.334 -6 95.001c26 40.667 76.667 63.334 152 68.001c8 0.666992 16.333 1 25 1
c70 0 157.667 -30.333 263 -91c18.667 20.667 37.334 46 56.001 76s34.667 58.667 48 86s27.833 60.833 43.5 100.5s27.834 71.5 36.501 95.5l33 95.5l26 77.5c-43.333 -8.66699 -84.666 -13 -123.999 -13c-126 0 -217.333 42.333 -274 127c-48 70.667 -62 155.667 -42 255
c20 101.333 69.667 187.666 149 258.999c56.667 51.333 122.334 87.666 197.001 108.999c21.333 6 34.666 1.66699 39.999 -13c4 -12 0.333008 -20.667 -11 -26c-2.66699 -2 -5.66699 -3 -9 -3c-2 0 -9.5 0.5 -22.5 1.5s-26.167 0.5 -39.5 -1.5s-28.666 -7 -45.999 -15
c-46 -21.333 -86.167 -53.5 -120.5 -96.5s-60 -89.167 -77 -138.5s-25 -100.333 -24 -153s10.833 -100.167 29.5 -142.5s49.5 -77.166 92.5 -104.499s95.5 -41 157.5 -41c42.667 0 86.334 5.33301 131.001 16l44.5 116.5l53.5 127c22.667 52.333 43.667 97.333 63 135
s42.5 78 69.5 121s53.167 78 78.5 105s53.166 49.5 83.499 67.5s60.166 27 89.499 27c46 0 71.333 -26.667 76 -80c6 -65.333 -17.333 -146.333 -70 -243c-64.667 -117.333 -149.667 -213.333 -255 -288c-55.333 -38.667 -113 -68.334 -173 -89.001l-32 -83l-32.5 -85
l-30.5 -75.5c-14.667 -35.667 -26 -61.5 -34 -77.5l-33.5 -66.5c-14.333 -28.333 -27.333 -50.833 -39 -67.5s-25.167 -35 -40.5 -55s-31 -37.667 -47 -53c37.333 -22.667 93 -59.167 167 -109.5l182 -121c47.333 -30.333 103.666 -58.5 168.999 -84.5s125 -39 179 -39
c232 0 391.667 101.333 479 304zM1221 1158c-26.667 0 -52.498 -7.83301 -77.498 -23.5s-49.167 -39 -72.5 -70s-45.333 -64.667 -66 -101s-41.834 -80 -63.501 -131l-59 -144.5l-59.5 -156c-3.33301 -10 -6 -17.333 -8 -22c126.667 47.333 236.667 132.666 330 255.999
c69.333 92 112.333 179.667 129 263c13.333 68.667 3.66602 110.334 -29.001 125.001c-7.33301 2.66699 -15.333 4 -24 4zM224.003 -180.001c98 0 180.333 30.667 247 92c-100.667 67.333 -179.667 101 -237 101c-68 0 -113.333 -18.667 -136 -56
c-17.333 -29.333 -15.333 -58.333 6 -87c24 -33.333 64 -50 120 -50z" />
    <glyph glyph-name="M" unicode="M" horiz-adv-x="1568" 
d="M2248 -392c4 10.667 10.4961 16.832 19.4961 18.499s16.167 -0.833008 21.5 -7.5s6 -15 2 -25c-9.33301 -23.333 -27.333 -49.5 -54 -78.5s-60.167 -58.5 -100.5 -88.5s-90.666 -55.167 -150.999 -75.5s-122.833 -30.5 -187.5 -30.5c-72 0 -136.333 12.333 -193 37
s-102.834 59.5 -138.501 104.5s-64.334 97.667 -86.001 158s-34.167 127 -37.5 200s-0.666016 149.167 8.00098 228.5s25.5 161.333 50.5 246s55.167 168 90.5 250s77.666 162.833 126.999 242.5s103 153.5 161 221.5c-222.667 -187.333 -445.667 -517.333 -669 -990
c-1.33301 -2.66699 -3 -6.83398 -5 -12.501s-3.66699 -9.83398 -5 -12.501s-3.16602 -5.83398 -5.49902 -9.50098s-5.16602 -6.5 -8.49902 -8.5s-7 -3.66699 -11 -5c-7.33301 -2 -13.333 0.166992 -18 6.5s-8.33398 16.166 -11.001 29.499
c-7.33301 37.333 -11 80.5 -11 129.5s2.66699 97.833 8 146.5s12.833 101.5 22.5 158.5s19.5 110.333 29.5 160s21 101.5 33 155.5c4.66699 22.667 8.33398 39.334 11.001 50.001c-14.667 -29.333 -56.667 -106.666 -126 -231.999l-166 -304
c-60.667 -114 -136.167 -201.167 -226.5 -261.5s-186.5 -90.5 -288.5 -90.5c-94.667 0 -171 27.333 -229 82s-87 120.667 -87 198c0 43.333 8.16699 83.833 24.5 121.5s37 68.834 62 93.501s52.667 45.834 83 63.501s59.166 30.5 86.499 38.5s51.666 12 72.999 12
c20.667 0 31.334 -7.33301 32.001 -22c0.666992 -12.667 -4.66602 -20.667 -15.999 -24c-4 -0.666992 -8 -0.666992 -12 0c-5.33301 1.33301 -12.5 3.5 -21.5 6.5s-16.5 5.16699 -22.5 6.5s-14.5 1.83301 -25.5 1.5s-23.167 -2.83301 -36.5 -7.5
c-31.333 -10.667 -60 -28.667 -86 -54s-46.333 -54.666 -61 -87.999s-25.167 -68.666 -31.5 -105.999s-5 -73.833 4 -109.5s23.333 -68 43 -97s49.167 -52.333 88.5 -70s85 -26.5 137 -26.5c93.333 0 182.5 28.5 267.5 85.5s158.833 142.5 221.5 256.5l288 524
c26 46.667 41.167 93 45.5 139s-1 86.333 -16 121s-39.5 62.667 -73.5 84s-74.333 32 -121 32c-54 0 -106.5 -9.66699 -157.5 -29s-95.833 -45 -134.5 -77s-72.834 -68 -102.501 -108s-52.167 -81.667 -67.5 -125s-23 -85 -23 -125c0 -60 22 -111.667 66 -155
s101.333 -65 172 -65c27.333 0 50.833 1.33301 70.5 4s35.334 7 47.001 13s20.667 11.5 27 16.5s13.166 11.833 20.499 20.5s13.333 15 18 19c12 10.667 22.667 11.667 32 3c9.33301 -10 8 -21 -4 -33c-1.33301 -1.33301 -3.33301 -3 -6 -5
c-50.667 -35.333 -118.667 -53 -204 -53c-76 0 -138.333 22.833 -187 68.5s-73 100.5 -73 164.5c0 60.667 15 121.167 45 181.5s68.833 113.333 116.5 159s103.5 82.834 167.5 111.501s128 43 192 43c81.333 0 143.833 -24.667 187.5 -74s62.834 -117 57.501 -203
c-4 -62 -16.5 -141.5 -37.5 -238.5s-40.333 -195 -58 -294s-26.167 -190.167 -25.5 -273.5c0 -30 5 -45 15 -45c7.33301 0 16.666 11.333 27.999 34c70.667 140.667 142 268.834 214 384.501s137.833 211.5 197.5 287.5s118.834 143 177.501 201s110 102.5 154 133.5
s86.333 56.167 127 75.5s72.834 31.666 96.501 36.999s44.5 8 62.5 8c42.667 0 66.334 -11.333 71 -34c3.33301 -15.333 -2 -27 -16 -35c-12.667 -7.33301 -26 -6.66602 -40 2.00098c-69.333 45.333 -151.666 28.333 -246.999 -51c-122 -100.667 -233 -252 -333 -454
c-104 -210.667 -170.333 -421.334 -199 -632.001c-31.333 -233.333 -6.66602 -412 74.001 -536c70 -108.667 179.333 -163 328 -163c55.333 0 107.333 7.16699 156 21.5s89 31.666 121 51.999s60.667 43.666 86 69.999s44.333 49.5 57 69.5s22.334 38.667 29 56z" />
    <glyph glyph-name="N" unicode="N" horiz-adv-x="1483" 
d="M2143 1243c42.667 0 66.3359 -11.3389 71.0029 -34.0059c3.33301 -15.333 -2 -27 -16 -35c-12.667 -7.33301 -26 -6.66602 -40 2.00098c-22.667 14.667 -45 24 -67 28s-48 1.66699 -78 -7s-62.667 -25.334 -98 -50.001c-222 -155.333 -439 -531.666 -651 -1129
c-1.33301 -3.33301 -2.83301 -7.83301 -4.5 -13.5s-3 -9.66699 -4 -12s-2.5 -5.16602 -4.5 -8.49902s-4.66699 -5.83301 -8 -7.5s-7.33301 -3.16699 -12 -4.5c-5.33301 -1.33301 -9.66602 -0.166016 -12.999 3.50098s-5.83301 8 -7.5 13s-3.5 12.167 -5.5 21.5
c-23.333 114 -60 381.667 -110 803l-61 -130.5l-59.5 -131.5l-59 -124c-23 -46.667 -43.667 -86.334 -62 -119.001s-40 -68 -65 -106s-49.333 -69.833 -73 -95.5s-50.667 -51.334 -81 -77.001s-61.333 -46 -93 -61s-66.834 -27.167 -105.501 -36.5s-79.334 -14 -122.001 -14
c-97.333 0 -174.166 26.833 -230.499 80.5s-84.5 117.834 -84.5 192.501c0 57.333 12.333 109 37 155s55.167 81.5 91.5 106.5s71.833 43.833 106.5 56.5s65.667 19 93 19c18.667 0 29 -7 31 -21c1.33301 -12.667 -4 -20.667 -16 -24
c-3.33301 -1.33301 -7 -1.66602 -11 -0.999023c-6 0.666992 -15 3 -27 7s-22 6.33301 -30 7s-23 -1.33301 -45 -6c-27.333 -8 -52.666 -22.167 -75.999 -42.5s-43 -44 -59 -71s-28.167 -56.833 -36.5 -89.5s-12.333 -65.167 -12 -97.5s6.16602 -63.833 17.499 -94.5
s27.333 -57.667 48 -81s48.667 -42 84 -56s76 -21 122 -21c51.333 0 100.333 8 147 24s88 36.333 124 61s71.5 57.167 106.5 97.5s65 79.5 90 117.5s51.333 84 79 138s50.5 101.167 68.5 141.5l65 145.5l62 135c13.333 27.333 21.5 58.5 24.5 93.5s0 69.667 -9 104
s-22.5 66.166 -40.5 95.499s-43 53 -75 71s-68 27 -108 27c-68 0 -132.667 -14.667 -194 -44s-112.5 -66.5 -153.5 -111.5s-73.667 -94.5 -98 -148.5s-36.5 -106 -36.5 -156c0 -63.333 22.667 -116.166 68 -158.499s101.666 -63.5 168.999 -63.5
c32.667 0 60.334 2.83301 83.001 8.5s38.5 11.667 47.5 18s18.667 14.666 29 24.999s17.833 17.166 22.5 20.499c14.667 10 25.834 9.5 33.501 -1.5s4.16699 -22.167 -10.5 -33.5c-1.33301 -0.666992 -2.33301 -1.33398 -3 -2.00098c-50.667 -34.667 -117.667 -52 -201 -52
c-75.333 0 -137.5 22.667 -186.5 68s-73.5 101.333 -73.5 168c0 54.667 13.667 111.167 41 169.5s64 111.333 110 159s102.5 86.834 169.5 117.501s136.833 46 209.5 46c70 0 126.667 -22 170 -66s71.666 -109.667 84.999 -197c14 -92 32.667 -235.167 56 -429.5
s39.666 -326.166 48.999 -395.499c2.66699 -18.667 5.16699 -31 7.5 -37s6.16602 -9 11.499 -9s12 11.667 20 35c56 150.667 112.833 286.334 170.5 407.001s110.5 219.334 158.5 296.001s97.167 143.167 147.5 199.5s93.5 98.333 129.5 126s73.167 49.334 111.5 65.001
s67.333 24.834 86.999 27.501c19.667 2.66699 40.5 4 62.5 4z" />
    <glyph glyph-name="O" unicode="O" horiz-adv-x="888" 
d="M791 1196c50 0 88.1641 -13.1689 114.497 -39.502s39 -60.333 38 -102s-10.833 -88.167 -29.5 -139.5c16.667 -42.667 25.167 -92.334 25.5 -149.001s-6.83398 -114.667 -21.501 -174s-34.5 -119.166 -59.5 -179.499s-55.833 -117 -92.5 -170s-75.667 -100.333 -117 -142
s-86.666 -74.5 -135.999 -98.5s-98 -36 -146 -36c-49.333 0 -94 12 -134 36s-73.333 60.167 -100 108.5s-41.834 108.833 -45.501 181.5s6.5 157.334 30.5 254.001c-41.333 26.667 -72.833 61 -94.5 103s-32.5 87.333 -32.5 136c0 50.667 10.833 97.834 32.5 141.501
s49 79.5 82 107.5s69.333 52.167 109 72.5s77 34.833 112 43.5s65.833 13 92.5 13c21.333 0 32 -7.33301 32 -22c0.666992 -12 -5 -20 -17 -24c-4 -1.33301 -8.33301 -1.66602 -13 -0.999023c-3.33301 0.666992 -13.333 3.33398 -30 8.00098s-32 6.66699 -46 6
s-32.333 -4.33398 -55 -11.001c-60.667 -18 -112.5 -44.833 -155.5 -80.5s-73.833 -75 -92.5 -118s-28.667 -86.667 -30 -131s7.83398 -86.333 27.501 -126s47.834 -72.167 84.501 -97.5c27.333 83.333 67.5 164.166 120.5 242.499s110.333 145.5 172 201.5
s125.834 101 192.501 135s127.334 51 182.001 51zM765.997 1167c-68 0 -142.334 -31.002 -223.001 -93.002s-154.167 -141.5 -220.5 -238.5s-115.833 -196.167 -148.5 -297.5c92.667 -32.667 186.334 -34.334 281.001 -5.00098s180.667 76.833 258 142.5
s132.666 135.834 165.999 210.501c-18.667 59.333 -52 89 -100 89c-12.667 0 -21 -6.33301 -25 -19s-4.33301 -26 -1 -40c1.33301 -5.33301 0 -8.83301 -4 -10.5s-7.66699 0.5 -11 6.5c-5.33301 12.667 -8.5 26.834 -9.5 42.501s4.66699 30 17 43s29.833 19.5 52.5 19.5
c40.667 0 75.334 -25.333 104.001 -76c12.667 42 17.667 79.833 15 113.5s-17 60.834 -43 81.501s-62 31 -108 31zM368.996 -14.0039c65.333 0 128.334 21.666 189.001 64.999s112.5 98.833 155.5 166.5s79.667 140.667 110 219s50.833 154.833 61.5 229.5
s11 138.334 1 191.001c-40.667 -79.333 -100.834 -150.5 -180.501 -213.5s-166.167 -107 -259.5 -132s-185.666 -22.167 -276.999 8.5c-24 -98 -33.167 -186.5 -27.5 -265.5s28.667 -143.5 69 -193.5s93.166 -75 158.499 -75z" />
    <glyph glyph-name="P" unicode="P" horiz-adv-x="1293" 
d="M1101 1183c140.667 0 254.505 -31.3379 341.505 -94.0049s130.5 -146 130.5 -250c0 -73.333 -21.167 -142.333 -63.5 -207s-98.166 -115.834 -167.499 -153.501s-142.333 -56.5 -219 -56.5c-69.333 0 -111.666 15.333 -126.999 46c-9.33301 19.333 -5.33301 36.333 12 51
c6 5.33301 10.667 6.66602 14 3.99902c0.666992 -1.33301 0 -3.66602 -2 -6.99902c-2.66699 -5.33301 -3.83398 -11.166 -3.50098 -17.499s3.5 -12.833 9.5 -19.5s13.333 -12.834 22 -18.501s20.667 -10.167 36 -13.5s32.333 -5 51 -5c104 0 193.333 38.333 268 115
s112 168.334 112 275.001c0 51.333 -9.16699 96.833 -27.5 136.5s-43.333 71.834 -75 96.501s-65.834 44 -102.501 58s-76.667 24 -120 30c-7.33301 0.666992 -13 0.166992 -17 -1.5s-6.5 -3.5 -7.5 -5.5s-2.5 -5.66699 -4.5 -11
c-2.66699 -7.33301 -22.834 -70 -60.501 -188l-115.5 -358c-39.333 -120.667 -66.666 -201.667 -81.999 -243c-14 -37.333 -29.667 -73.5 -47 -108.5s-40.333 -72.5 -69 -112.5s-59.334 -74.667 -92.001 -104s-71.834 -53.666 -117.501 -72.999s-93.834 -29 -144.501 -29
c-60.667 0 -115.334 7.66699 -164.001 23s-88.334 35.833 -119.001 61.5s-55.5 55.334 -74.5 89.001s-30.833 69 -35.5 106s-3.5 74.833 3.5 113.5s19.667 75 38 109s42.333 65.333 72 94s63.5 51.667 101.5 69c6.66699 56.667 24.5 113.334 53.5 170.001
s68.833 110.667 119.5 162s108.667 96.833 174 136.5s141.333 71.334 228 95.001s177 35.5 271 35.5zM1100 1138c4 14 -1.99707 21.0029 -17.9971 21.0029c-36.667 -0.666992 -74.334 -3.5 -113.001 -8.5s-81.334 -13.5 -128.001 -25.5s-91.5 -27 -134.5 -45
s-86.167 -41.667 -129.5 -71s-82.166 -62.5 -116.499 -99.5s-65.166 -81.667 -92.499 -134s-47.333 -109.5 -60 -171.5c35.333 9.33301 72.333 14 111 14c103.333 0 170.666 -29 201.999 -87c23.333 -42.667 22.333 -88.667 -3 -138c-24 -46 -60 -76 -108 -90
c-14.667 -4.66699 -30 -7 -46 -7c-65.333 0 -116.333 26.167 -153 78.5s-55.334 113.166 -56.001 182.499c-30.667 -18 -57.667 -41 -81 -69s-41.833 -58.167 -55.5 -90.5s-22.667 -66.333 -27 -102s-3.83301 -70.334 1.5 -104.001s16.666 -66 33.999 -97s39.5 -58 66.5 -81
s61.5 -41.333 103.5 -55s88.667 -20.5 140 -20.5c25.333 0 51.333 3.66699 78 11s56.167 20.833 88.5 40.5s62.833 44.5 91.5 74.5s57.167 70.167 85.5 120.5s52.833 107.833 73.5 172.5c119.333 371.333 201.333 631.666 246 780.999zM306.008 580.998
c-2.66699 -42 1.16602 -82.167 11.499 -120.5s28.333 -70.833 54 -97.5s56.834 -40 93.501 -40c50 0 90 20.667 120 62c28.667 38.667 36.667 78.667 24 120c-16 50.667 -59.667 81.667 -131 93c-18 2.66699 -37 4 -57 4c-38.667 0 -77 -7 -115 -21z" />
    <glyph glyph-name="Q" unicode="Q" horiz-adv-x="964" 
d="M1554 -197c4 15.333 12.332 22.6641 24.999 21.9971c10.667 -1.33301 17 -7.33301 19 -18l-2 -12c-5.33301 -15.333 -15.333 -34.333 -30 -57s-36.667 -49.5 -66 -80.5s-62.166 -59.5 -98.499 -85.5s-81.5 -48 -135.5 -66s-110.333 -27 -169 -27
c-38 0 -76.333 3.33301 -115 10s-73 13.834 -103 21.501s-63.667 20.5 -101 38.5s-66.833 32.667 -88.5 44s-51 29.666 -88 54.999l-77.5 54l-78.5 59.5c-37.667 29 -61.167 46.833 -70.5 53.5c-82.667 -42 -174 -63 -274 -63c-81.333 0 -139.666 20.667 -174.999 62
c-26.667 31.333 -31.334 63.333 -14.001 96c21.333 39.333 66.666 61.333 135.999 66c8 0.666992 16.333 1 25 1c89.333 0 198.666 -41.333 327.999 -124c50 32 92.333 71.667 127 119c-52 -8 -98.333 -6.16699 -139 5.5s-73.334 30.167 -98.001 55.5
s-45.167 55.5 -61.5 90.5s-27.166 72 -32.499 111s-8 78.167 -8 117.5s2.83301 75.5 8.5 108.5s12.834 61.5 21.501 85.5c-40.667 26.667 -71.834 61 -93.501 103s-32.5 87.333 -32.5 136c0 50.667 10.833 97.834 32.5 141.501s49 79.5 82 107.5s69.333 52.167 109 72.5
s76.834 34.833 111.501 43.5s65.334 13 92.001 13c21.333 0 32.333 -7.33301 33 -22c0.666992 -12 -5 -20 -17 -24c-4 -1.33301 -8.33301 -1.66602 -13 -0.999023s-13 2.5 -25 5.5s-21.333 4.83301 -28 5.5s-17.167 0.333984 -31.5 -0.999023
s-30.166 -4.66602 -47.499 -9.99902c-59.333 -18 -110.333 -44.667 -153 -80s-73.167 -74.166 -91.5 -116.499s-28.333 -85.5 -30 -129.5s7.16602 -85.667 26.499 -125s47 -71.666 83 -96.999c36.667 110 94 214.167 172 312.5s161.5 175.666 250.5 231.999
s170.167 84.5 243.5 84.5c37.333 0 68.166 -7.66699 92.499 -23s41 -36 50 -62s11.833 -55.833 8.5 -89.5s-12.666 -69.5 -27.999 -107.5c15.333 -42.667 23.666 -90.5 24.999 -143.5s-3.83398 -106.667 -15.501 -161s-28.167 -109.166 -49.5 -164.499
s-47.333 -108 -78 -158s-63.667 -95.833 -99 -137.5s-73.666 -77.5 -114.999 -107.5s-82.333 -51 -123 -63c-33.333 -53.333 -79.666 -99.666 -138.999 -138.999l129.5 -88.5l140 -95.5c37.667 -24.667 81 -50.667 130 -78s96.5 -47.833 142.5 -61.5s91 -20.5 135 -20.5
c58.667 0 113.834 9.16699 165.501 27.5s93.834 40.166 126.501 65.499s61.667 53.166 87 83.499s43.666 56.166 54.999 77.499s18.666 38.666 21.999 51.999zM867.999 1167c-68 0 -142.168 -30.832 -222.501 -92.499s-153.5 -140.834 -219.5 -237.501
s-115.333 -195.667 -148 -297c56.667 -24 119.167 -31.167 187.5 -21.5s134.833 30.167 199.5 61.5s125 74 181 128s100 113 132 177c-17.333 60 -49.666 90 -96.999 90c-13.333 0 -21.833 -6.33301 -25.5 -19s-3.83398 -26 -0.500977 -40
c1.33301 -5.33301 -0.166992 -8.83301 -4.5 -10.5s-7.83301 0.5 -10.5 6.5c-5.33301 12.667 -8.5 26.834 -9.5 42.501s4.66699 30 17 43s29.833 19.5 52.5 19.5c40.667 0 74.667 -24.667 102 -74c12.667 42 17.834 79.667 15.501 113s-16.333 60.166 -42 80.499
s-61.5 30.5 -107.5 30.5zM271.998 518.999c-7.33301 -20.667 -13.499 -46.168 -18.499 -76.501s-8.16699 -64.166 -9.5 -101.499s0.5 -74.333 5.5 -111s13.833 -72 26.5 -106s30.667 -62.333 54 -85s52.333 -38.667 87 -48s76.667 -8 126 4c14.667 23.333 25.667 46 33 68
s10.5 39.333 9.5 52s-5.83301 19 -14.5 19c-2.66699 0 -7.5 -1.66699 -14.5 -5s-16.5 -5 -28.5 -5c-25.333 0 -43 10.167 -53 30.5s-9.5 40.666 1.5 60.999s28.833 30.5 53.5 30.5c23.333 0 43 -10.5 59 -31.5s24 -46.167 24 -75.5c0 -42 -12.667 -86.667 -38 -134
c66 24.667 128.167 72.334 186.5 143.001s104.833 148 139.5 232s59.834 169 75.501 255s18.5 158.667 8.5 218c-36 -72 -91.833 -139 -167.5 -201s-161.334 -107.5 -257.001 -136.5s-191.834 -27.833 -288.501 3.5zM102.999 -227.002c94 0 178.333 18.333 253 55
c-56 42 -106.333 74 -151 96s-88.667 33 -132 33c-64 0 -105.333 -17 -124 -51c-14.667 -28 -9.66699 -55.667 15 -83c30 -33.333 76.333 -50 139 -50z" />
    <glyph glyph-name="R" unicode="R" horiz-adv-x="1472" 
d="M2191 -511c3.33301 5.33301 8 7.99316 14 7.99316s10.333 -2.33301 13 -7s2.33398 -11.334 -0.999023 -20.001c-6 -12.667 -22 -23.667 -48 -33s-53.333 -14 -82 -14c-70 0 -136.833 10.833 -200.5 32.5s-119.667 50.334 -168 86.001s-94.833 78.5 -139.5 128.5
s-83 100.833 -115 152.5s-63.667 107 -95 166s-57.666 112.833 -78.999 161.5l-67 147c-23.333 49.333 -43 87.333 -59 114c-26.667 -5.33301 -57.667 -8 -93 -8c-30.667 0 -51.834 8.83301 -63.501 26.5s-10.667 35.334 3 53.001s35.167 26.5 64.5 26.5
c32.667 0 68.334 -24.667 107.001 -74c99.333 23.333 182 72.666 248 147.999s99 158.333 99 249c0 51.333 -9.16699 96.833 -27.5 136.5s-43.5 71.834 -75.5 96.501s-66.5 44 -103.5 58s-76.833 23.667 -119.5 29c-6.66699 0.666992 -12.167 0.333984 -16.5 -0.999023
s-7.16602 -3 -8.49902 -5s-3 -5.66699 -5 -11c-2.66699 -7.33301 -22.834 -70 -60.501 -188l-115.5 -358c-39.333 -120.667 -66.666 -201.667 -81.999 -243c-14 -37.333 -29.667 -73.5 -47 -108.5s-40.333 -72.5 -69 -112.5s-59.334 -74.667 -92.001 -104
s-72 -53.666 -118 -72.999s-94.333 -29 -145 -29c-60.667 0 -115.334 7.66699 -164.001 23s-88.334 35.833 -119.001 61.5s-55.5 55.5 -74.5 89.5s-30.833 69.5 -35.5 106.5s-3.5 74.833 3.5 113.5s19.667 75 38 109s42.5 65.333 72.5 94s64 51.667 102 69
c5.33301 52.667 21.5 106.334 48.5 161.001s65.5 107.834 115.5 159.501s107.667 97.834 173 138.501s142.333 73.167 231 97.5s181.667 36.5 279 36.5c141.333 0 255.5 -30.667 342.5 -92s130.5 -143.666 130.5 -246.999c0 -94 -38 -181.333 -114 -262
s-168.667 -134 -278 -160c22.667 -32 49.5 -77 80.5 -135l91 -173l100.5 -185c37.333 -66 77.333 -126.833 120 -182.5s88.667 -106.667 138 -153s105 -82.833 167 -109.5s127 -40 195 -40c52.667 0 87.334 16.667 104 50zM1113 1136.99
c4 13.333 0.333008 20.334 -11 21.001c-39.333 0.666992 -82.333 -2.33301 -129 -9s-97.667 -17.834 -153 -33.501s-109.333 -38 -162 -67s-102 -63.167 -148 -102.5s-86 -88.5 -120 -147.5s-57.333 -123.833 -70 -194.5c35.333 9.33301 72.333 14 111 14
c103.333 0 170.666 -29 201.999 -87c23.333 -42.667 22.333 -88.667 -3 -138c-24 -46 -60 -76 -108 -90c-14.667 -4.66699 -30 -7 -46 -7c-33.333 0 -63.5 7.5 -90.5 22.5s-48.833 35 -65.5 60s-29.667 52.667 -39 83s-14.333 61.833 -15 94.5
c-34.667 -20.667 -64.834 -47.5 -90.501 -80.5s-44.5 -68.5 -56.5 -106.5s-18.667 -77.333 -20 -118s5.5 -79.5 20.5 -116.5s35.833 -70.167 62.5 -99.5s63.167 -52.833 109.5 -70.5s98.833 -26.5 157.5 -26.5c25.333 0 51.333 3.66699 78 11s56 20.833 88 40.5
s62.333 44.5 91 74.5s57.334 70.167 86.001 120.5s53.334 107.833 74.001 172.5c132 410 214.333 670 247 780zM318 579.994c-4 -66.667 8.16797 -126.168 36.501 -178.501s69.166 -78.5 122.499 -78.5c50 0 90 20.333 120 61c28 38.667 35.667 78.334 23 119.001
c-16 50 -60.333 80.667 -133 92c-17.333 2.66699 -36 4 -56 4c-39.333 0 -77 -6.33301 -113 -19zM1073 421.993c29.333 0 55.999 2.33301 79.999 7c-28.667 43.333 -55 65 -79 65c-20.667 0 -35.167 -6 -43.5 -18s-8.16602 -24 0.500977 -36s22.667 -18 42 -18z" />
    <glyph glyph-name="S" unicode="S" horiz-adv-x="973" 
d="M1040 1032c0 -32 -8.50391 -64.8379 -25.5039 -98.5049s-40.167 -64.167 -69.5 -91.5s-65.666 -49.666 -108.999 -66.999s-89 -26 -137 -26c14 -17.333 34.333 -41 61 -71s48.834 -55.833 66.501 -77.5s36.167 -47.334 55.5 -77.001s34 -61 44 -94s15 -67.833 15 -104.5
c0 -86.667 -33 -163 -99 -229s-149.667 -105.333 -251 -118c-63.333 -86 -145.166 -156 -245.499 -210s-207.5 -81 -321.5 -81c-12.667 0 -21.334 4.33301 -26.001 13s-4.5 17.334 0.5 26.001s12.833 13 23.5 13c6.66699 0 13 -1.66699 19 -5s11.333 -6.66602 16 -9.99902
s12.667 -6 24 -8s26 -2 44 0c88 10.667 170.5 39.334 247.5 86.001s141.5 104.334 193.5 173.001c-18.667 -1.33301 -33 -2 -43 -2c-63.333 0 -121.833 10.667 -175.5 32s-97.5 49.166 -131.5 83.499s-60.333 72 -79 113s-28 81.833 -28 122.5c0 82 26.333 151.833 79 209.5
s122.334 86.5 209.001 86.5c35.333 0 70.166 -6.83301 104.499 -20.5s66.5 -34 96.5 -61s54.333 -63.5 73 -109.5s28 -98 28 -156c0 -92.667 -31.333 -184.334 -94 -275.001c34 6 65.833 15.333 95.5 28s59 30.834 88 54.501s52 56 69 97s25.5 88.5 25.5 142.5
c0 45.333 -9.5 89.5 -28.5 132.5s-40.333 78.333 -64 106l-87 100c-34.333 39 -60.166 71.167 -77.499 96.5c-74.667 13.333 -129.667 36.333 -165 69c-11.333 10 -12 21 -2 33c10 10.667 20 12.334 30 5.00098c3.33301 -2 6 -4.66699 8 -8
c23.333 -37.333 62 -63.666 116 -78.999c-32 52.667 -48 106.667 -48 162c0 72.667 31.833 133.5 95.5 182.5s131.167 73.5 202.5 73.5c52.667 0 95.334 -15.833 128.001 -47.5s49 -69.5 49 -113.5zM522.996 -9.00488c16.667 0 36 1.00195 58 3.00195
c65.333 94 98 186 98 276c0 55.333 -10.5 107.666 -31.5 156.999s-53.667 90.833 -98 124.5s-95.5 50.5 -153.5 50.5c-91.333 0 -158.333 -35.667 -201 -107c-37.333 -63.333 -47 -137.333 -29 -222c19.333 -88.667 64 -159.334 134 -212.001
c62 -46.667 136.333 -70 223 -70zM686.996 763.997c48 -2 93.332 5.33203 135.999 21.999s77.834 38.334 105.501 65.001s49.5 55.667 65.5 87s24 62 24 92c0 40.667 -13.833 74.167 -41.5 100.5s-65.5 39.5 -113.5 39.5c-65.333 0 -122.333 -21.667 -171 -65
s-73 -98 -73 -164c0 -56.667 22.667 -115.667 68 -177z" />
    <glyph glyph-name="T" unicode="T" horiz-adv-x="636" 
d="M1367 1069c2 -4 3.1748 -9.50098 3.50781 -16.501s-0.333984 -15.5 -2.00098 -25.5s-4.33398 -20.667 -8.00098 -32s-9.33398 -23.166 -17.001 -35.499s-16.834 -24.333 -27.501 -36s-24.334 -22.667 -41.001 -33s-35.167 -19.5 -55.5 -27.5s-44.666 -14.333 -72.999 -19
s-58.833 -7 -91.5 -7c-60 0 -115.833 9.5 -167.5 28.5s-107.167 46.5 -166.5 82.5c-14 -42 -75.667 -244.333 -185 -607c-70.667 -233.333 -169.334 -350 -296.001 -350c-54.667 0 -101.667 15 -141 45c-14 10.667 -16.667 22 -8 34c8.66699 11.333 19 13.666 31 6.99902
l8 -6c2.66699 -2.66699 8.16699 -9.33398 16.5 -20.001s15.166 -18.334 20.499 -23.001s14.833 -9.5 28.5 -14.5s29.834 -7.5 48.501 -7.5c86.667 0 157.667 86.667 213 260l219 710c-45.333 28 -78.5 48 -99.5 60s-52 27.667 -93 47s-81 33 -120 41s-80.167 12 -123.5 12
c-109.333 0 -193 -34.667 -251 -104c-46.667 -56 -65.667 -118.667 -57 -188c8.66699 -72 44 -127.667 106 -167c50 -32.667 112.333 -49 187 -49c17.333 0 30.333 0.166992 39 0.5s24.667 2.33301 48 6s42.5 9.16699 57.5 16.5s31.167 19 48.5 35s30.333 35.333 39 58
c6 15.333 15.667 20.666 29 15.999c12.667 -3.33301 17.334 -11 14.001 -23c-0.666992 -3.33301 -2 -6.66602 -4 -9.99902c-53.333 -77.333 -144 -116 -272 -116c-134.667 0 -231.667 37.333 -291 112c-46 56.667 -60.333 122.334 -43 197.001
c16.667 73.333 59 132.333 127 177c62.667 41.333 136.667 62 222 62c44 0 86.333 -4.16699 127 -12.5s80.667 -21.166 120 -38.499s72.333 -33.5 99 -48.5s59.667 -34.833 99 -59.5c8.66699 30 13.334 45.667 14.001 47c3.33301 13.333 10.666 26.5 21.999 39.5
s23.333 21.833 36 26.5c9.33301 4 14.5 1.83301 15.5 -6.5s0.166992 -14.166 -2.5 -17.499c-8.66699 -22 -22 -60.667 -40 -116c62.667 -39.333 119.167 -69.333 169.5 -90s103.5 -31 159.5 -31c35.333 0 68.166 3.33301 98.499 10s55.666 15.5 75.999 26.5
s38.166 23.667 53.499 38s26 29.166 32 44.499s10.167 30.333 12.5 45s0.166016 28.334 -6.50098 41.001c-2.66699 8 -1.5 15.167 3.5 21.5s11.667 9 20 8s14.833 -6.83301 19.5 -17.5z" />
    <glyph glyph-name="U" unicode="U" horiz-adv-x="876" 
d="M863 509c11.333 0 16.6621 -2.00098 15.9951 -6.00098c-0.666992 -2 -1.66699 -3.33301 -3 -4c-20 -14 -38 -39.5 -54 -76.5s-42.667 -108.5 -80 -214.5c-26 -72.667 -37.333 -120.667 -34 -144c2.66699 -21.333 14 -32 34 -32c32.667 0 64.334 26.333 95.001 79
c0.666992 1.33301 1.66699 2.16602 3 2.49902s2.5 -0.166992 3.5 -1.5s1.16699 -3 0.5 -5c-10.667 -30 -28.667 -56.333 -54 -79s-52.666 -34 -81.999 -34c-26 0 -44.167 8.5 -54.5 25.5s-12.333 43.5 -6 79.5s21.5 80.333 45.5 133h-3
c-13.333 -20.667 -25.666 -39 -36.999 -55s-28 -36.333 -50 -61s-43.833 -45.167 -65.5 -61.5s-47.5 -30.666 -77.5 -42.999s-60.333 -18.5 -91 -18.5c-80 0 -120 29.333 -120 88c0.666992 36 21 98 61 186c1.33301 2.66699 3.33301 7.33398 6 14.001
c84 186.667 140.333 333.667 169 441c83.333 306.667 18 460 -196 460c-48.667 0 -94.5 -9.5 -137.5 -28.5s-80 -44 -111 -75s-57.333 -67 -79 -108s-37 -83.167 -46 -126.5s-11 -87 -6 -131s16.5 -84.333 34.5 -121s45 -68.834 81 -96.501s79 -47.167 129 -58.5
c26 -4 43.167 -4.5 51.5 -1.5s16.333 8.16699 24 15.5s13.834 11.333 18.501 12c13.333 2.66699 22 -0.833008 26 -10.5s1.33301 -18.167 -8 -25.5c-7.33301 -6 -20.166 -10.333 -38.499 -13s-40.166 -2.5 -65.499 0.5s-51.833 8.83301 -79.5 17.5s-54.667 22.667 -81 42
s-50 42.333 -71 69s-37.5 61.334 -49.5 104.001s-17 90 -15 142c2.66699 66.667 21.5 131.167 56.5 193.5s85 114.333 150 156s136.5 62.5 214.5 62.5c83.333 0 148.5 -23.5 195.5 -70.5s72.833 -117.833 77.5 -212.5s-19 -212.667 -71 -354
c-14 -38.667 -30.833 -81 -50.5 -127l-51 -117.5c-14.333 -32.333 -28.5 -66 -42.5 -101s-23.833 -63.833 -29.5 -86.5s-8 -43.5 -7 -62.5s8.16699 -33 21.5 -42s32.666 -13.5 57.999 -13.5c37.333 0 75.833 12.833 115.5 38.5s75.334 58 107.001 97s59.667 79 84 120
s43.166 79.5 56.499 115.5c30.667 82.667 68 124 112 124z" />
    <glyph glyph-name="V" unicode="V" horiz-adv-x="686" 
d="M1417 1235c38.667 0 60.0098 -9.66406 64.0098 -28.9971c2.66699 -14 -3.33301 -24.333 -18 -31c-4.66699 -2 -9.66699 -3 -15 -3c-8 0 -19 3.33301 -33 10s-27.167 11.667 -39.5 15s-32.833 2 -61.5 -4c-42 -11.333 -87.5 -32.5 -136.5 -63.5
s-104.5 -76.833 -166.5 -137.5s-124 -132.667 -186 -216s-128 -187.833 -198 -313.5s-136.667 -264.167 -200 -415.5c-4.66699 -11.333 -8.5 -19.666 -11.5 -24.999s-7.5 -11 -13.5 -17s-12.667 -9.33301 -20 -10c-2 0 -3.83301 0.166992 -5.5 0.5s-3.16699 1.33301 -4.5 3
s-2.33301 3 -3 4s-1.5 2.83301 -2.5 5.5s-1.66699 4.66699 -2 6s-0.833008 3.5 -1.5 6.5s-1 4.83301 -1 5.5c-25.333 125.333 -31.333 254.333 -18 387s41 257.167 83 373.5s89.667 201.166 143 254.499c2.66699 2 4.66699 3.83301 6 5.5s1.33301 3 0 4
s-4.33301 1.16699 -9 0.5c-46 -6.66699 -98 -2.66699 -156 12s-117.333 31 -178 49s-112.334 27 -155.001 27c-52 0 -97.833 -10.833 -137.5 -32.5s-70 -49.167 -91 -82.5s-35.167 -70.333 -42.5 -111s-6.83301 -79.834 1.5 -117.501s24.666 -72 48.999 -103
s54.833 -52.833 91.5 -65.5c4.66699 -1.33301 7.83398 -3.16602 9.50098 -5.49902s2.16699 -4.5 1.5 -6.5s-2 -3.66699 -4 -5c-15.333 -8 -36.666 -6 -63.999 6c-40 18.667 -71.333 45.334 -94 80.001s-35.834 71.667 -39.501 111s1.16602 79.666 14.499 120.999
s33.166 78.666 59.499 111.999s61.166 60.666 104.499 81.999s90.666 32 141.999 32c54.667 0 126.167 -13.833 214.5 -41.5s153.166 -41.5 194.499 -41.5c10.667 0 20.834 0.333008 30.501 1s18.834 2 27.501 4s16.167 3.66699 22.5 5s13.166 3.33301 20.499 6
s12.666 4.66699 15.999 6s8.16602 3.5 14.499 6.5l11.5 5.5c11.333 5.33301 20.166 4.5 26.499 -2.5s5.16602 -14.833 -3.50098 -23.5c-50.667 -54.667 -94.334 -120.667 -131.001 -198s-63.5 -152.833 -80.5 -226.5s-29.5 -146.834 -37.5 -219.501
s-11.333 -133.667 -10 -183s4.66602 -86.333 9.99902 -111c5.33301 -21.333 10.333 -32 15 -32c6 0 12.667 8 20 24c62 138 125.833 264 191.5 378s126.5 208.167 182.5 282.5s112.333 139.833 169 196.5s106.5 100 149.5 130s84.833 54.167 125.5 72.5s72.834 30 96.501 35
s44.5 7.5 62.5 7.5z" />
    <glyph glyph-name="W" unicode="W" horiz-adv-x="1049" 
d="M1763 1238c50 0 79.002 -12.3262 87.002 -36.9932c5.33301 -14.667 1.33301 -26 -12 -34c-4.66699 -2.66699 -10 -4 -16 -4c-8 0 -18.333 4 -31 12s-25 15.333 -37 22s-31.5 8.16699 -58.5 4.5s-58.167 -15.5 -93.5 -35.5c-72 -40 -146.333 -99.167 -223 -177.5
s-145.834 -161.5 -207.501 -249.5s-119.5 -178.833 -173.5 -272.5s-98 -177.334 -132 -251.001s-58.333 -133.5 -73 -179.5c-2.66699 -7.33301 -7.5 -15.5 -14.5 -24.5s-15.167 -13.5 -24.5 -13.5c-10.667 0 -17 5.33301 -19 16c-27.333 168 -22.666 364.667 14.001 590
c-64.667 -80 -125.667 -172.5 -183 -277.5s-99 -201.167 -125 -288.5c-3.33301 -9.33301 -5.33301 -15.166 -6 -17.499s-2.16699 -5.66602 -4.5 -9.99902s-4.66602 -7.33301 -6.99902 -9s-5.5 -3.16699 -9.5 -4.5c-16 -5.33301 -25 -2 -27 10
c-24.667 135.333 -30.334 277.333 -17.001 426c-58 -26 -114.167 -36.833 -168.5 -32.5s-102.5 18 -144.5 41s-75.667 54.667 -101 95s-38 83.5 -38 129.5c0 49.333 11 92.166 33 128.499s50.667 64.833 86 85.5s78.666 40.667 129.999 60s102.166 36 152.499 50
s106 33.167 167 57.5s114.833 51.166 161.5 80.499c22 14 36.667 15.667 44 5c4 -6.66699 1.66699 -14.667 -7 -24c-138.667 -140 -223 -348.333 -253 -625c45.333 32 72.666 68.333 81.999 109c2.66699 15.333 10.334 21.666 23.001 18.999c10.667 -2 16 -8.33301 16 -19
c0 -4 -1 -7.66699 -3 -11c-24.667 -44.667 -65 -84 -121 -118c-11.333 -112 -13 -218.333 -5 -319c1.33301 -20.667 6 -31.667 14 -33c5.33301 0 10 4.66699 14 14c76 190 177 361.333 303 514c16.667 98.667 37.667 185 63 259c21.333 62.667 52.333 107 93 133
c30.667 19.333 53.667 19.666 69 0.999023c14.667 -17.333 15.334 -48 2.00098 -92c-8 -27.333 -22 -57.166 -42 -89.499s-37.167 -57.5 -51.5 -75.5l-82.5 -101c-15.333 -73.333 -26.166 -146.666 -32.499 -219.999s-9 -135.833 -8 -187.5s4.5 -97.834 10.5 -138.501
c2 -10.667 5.66699 -16.334 11 -17.001c2 0 3.83301 0.666992 5.5 2s3 2.66602 4 3.99902s2.16699 2.66602 3.5 3.99902l1 3c55.333 121.333 112.666 234.166 171.999 338.499s115.5 193.666 168.5 267.999s106 141.333 159 201s101.833 108.167 146.5 145.5
s87.5 68.333 128.5 93s76.667 42 107 52s57.166 15 80.499 15zM-39.998 671.007c0 -50 11.834 -94.833 35.501 -134.5s54.5 -69.667 92.5 -90s82.333 -30.666 133 -30.999s101 11.5 151 35.5c12 114 34.667 222.167 68 324.5s73.333 190.833 120 265.5
c2.66699 3.33301 3 6.5 1 9.5s-5.66699 3.5 -11 1.5c-68 -26.667 -166.667 -60 -296 -100c-31.333 -9.33301 -57.833 -18 -79.5 -26s-44.667 -17.667 -69 -29s-44.5 -23.833 -60.5 -37.5s-30.833 -29.5 -44.5 -47.5s-23.834 -38.833 -30.501 -62.5s-10 -49.834 -10 -78.501z
M872.003 915.007c-22.667 -65.333 -42 -132.999 -58 -202.999c38.667 46 69.5 86 92.5 120s41.833 70.667 56.5 110c14 38 13.667 63.333 -1 76c-12.667 11.333 -28.667 4.66602 -48 -20.001c-16 -19.333 -30 -47 -42 -83z" />
    <glyph glyph-name="X" unicode="X" horiz-adv-x="1640" 
d="M2287 1113c42 0 65.3389 -9.00293 70.0059 -27.0029c2.66699 -10 -1 -17.333 -11 -22c-2.66699 -0.666992 -5.33398 -1 -8 -1c-8 0 -19.333 4.33301 -34 13s-35.667 13 -63 13c-44.667 0 -93.667 -9.66699 -147 -29s-104.333 -43.166 -153 -71.499
s-105.167 -66.833 -169.5 -115.5s-121 -93.834 -170 -135.501l-181.5 -158.5l12 -150.5l10.5 -134c2.33301 -31 3.83301 -49.5 4.5 -55.5c1.33301 -8 2.83301 -19 4.5 -33l4 -33.5c1 -8.33301 2.33301 -18.666 4 -30.999s3.5 -22.166 5.5 -29.499l7 -25
c2.66699 -9.33301 5.66699 -16.833 9 -22.5s7.16602 -11 11.499 -16s9.33301 -8.66699 15 -11s11.834 -3.5 18.501 -3.5c33.333 0 64 26.333 92 79c1.33301 3.33301 3.33301 4 6 2c1.33301 -1.33301 1.66602 -3.33301 0.999023 -6c-10 -30 -27.167 -56.333 -51.5 -79
s-51.166 -34 -80.499 -34c-12.667 0 -23.667 2 -33 6s-17.333 11.5 -24 22.5s-12 21.5 -16 31.5s-7.83301 26.333 -11.5 49s-6.33398 41.667 -8.00098 57s-4.16699 39.666 -7.5 72.999l-11 139.5c-5.33301 68.333 -9.66602 121.5 -12.999 159.5l-124 -110l-120.5 -104.5
l-126.5 -105l-120.5 -92.5c-50.333 -38 -92.333 -67.167 -126 -87.5l-119 -68.5c-45.667 -25.333 -86.5 -44.333 -122.5 -57s-74.333 -23.5 -115 -32.5s-79.334 -13.5 -116.001 -13.5c-82.667 0 -145.334 27 -188.001 81c-40 51.333 -50.667 110.333 -32 177
c22.667 81.333 82.667 150 180 206c22.667 12.667 46.667 24.334 72 35.001c19.333 8 32.333 5 39 -9c5.33301 -11.333 3 -20.666 -7 -27.999c-1.33301 -0.666992 -3 -1.33398 -5 -2.00098c-6.66699 -2 -22 -2.66699 -46 -2s-44 -4.66602 -60 -15.999
c-38 -21.333 -69.667 -47.166 -95 -77.499s-42.833 -61 -52.5 -92s-12.834 -61.833 -9.50098 -92.5s13.166 -57.834 29.499 -81.501s39.833 -42.834 70.5 -57.501s66.334 -22 107.001 -22c32 0 65.167 3.83301 99.5 11.5s67.5 17.167 99.5 28.5s67.5 27.833 106.5 49.5
s73.833 41.834 104.5 60.501s67.5 44.167 110.5 76.5l109 83c29.667 23 67.5 54.333 113.5 94l111 96l116 102l113 99.5c-2 20 -4.16699 48.833 -6.5 86.5s-4.5 70.667 -6.5 99s-5.83301 61.5 -11.5 99.5s-12.667 71.167 -21 99.5s-20.5 57.333 -36.5 87s-35 54 -57 73
s-49.667 34.5 -83 46.5s-71 18 -113 18c-138.667 0 -247 -47.667 -325 -143c-60 -74.667 -90 -161.334 -90 -260.001c-0.666992 -94 25.666 -170 78.999 -228c47.333 -52.667 109 -79 185 -79c54 0 100 10.5 138 31.5s64.667 52.167 80 93.5c6 16.667 15.667 23 29 19
c12 -2.66699 17.667 -9.66699 17 -21c-0.666992 -3.33301 -1.66699 -6.66602 -3 -9.99902c-15.333 -32 -47.166 -61.667 -95.499 -89s-103.833 -41 -166.5 -41c-118 0 -204.333 41.333 -259 124c-46.667 70.667 -61.334 155 -44.001 253c18 99.333 64.667 183 140 251
c85.333 77.333 191 116 317 116c121.333 0 210.666 -32.333 267.999 -97s90.666 -155.667 99.999 -273c6.66699 -80.667 12 -151 16 -211l180 151c53.333 42.667 112 86.167 176 130.5s123.167 80.5 177.5 108.5s111 50.833 170 68.5s114.833 26.5 167.5 26.5z" />
    <glyph glyph-name="Y" unicode="Y" horiz-adv-x="1067" 
d="M863 -55c148 5.33301 261.842 -9.33105 341.509 -43.998s119.5 -79 119.5 -133c0 -28.667 -9.16699 -52.5 -27.5 -71.5s-37.166 -32.167 -56.499 -39.5c-16 -5.33301 -25.333 -6.33301 -28 -3c-0.666992 1.33301 0.666016 2.66602 3.99902 3.99902
c0.666992 0.666992 1.33398 1 2.00098 1c16 4.66699 30.667 15.167 44 31.5s20 38.833 20 67.5c0 56.667 -38.5 100.167 -115.5 130.5s-180.5 43.166 -310.5 38.499c-38.667 -92 -79.334 -169.5 -122.001 -232.5s-86.834 -111.5 -132.501 -145.5s-90.5 -58 -134.5 -72
s-92 -21 -144 -21c-59.333 0 -109.333 13.333 -150 40s-61 60.667 -61 102c0 48.667 21.333 94.167 64 136.5s98.5 77.5 167.5 105.5s144.167 50.667 225.5 68s163.666 28.666 246.999 33.999c24.667 65.333 56 162 94 290h-2c-17.333 -28 -33.333 -52 -48 -72
s-35.834 -44.667 -63.501 -74s-58.667 -52.166 -93 -68.499s-70.5 -24.5 -108.5 -24.5c-18 0 -34 1.33301 -48 4s-25.5 7 -34.5 13s-16.833 12 -23.5 18s-10.834 14.667 -12.501 26l-4.5 29.5c-1.33301 8.33301 -0.166016 20.166 3.50098 35.499l9 37
c2.33301 9.33301 7 23 14 41l16 41l17.5 43c78 188.667 129.667 337.334 155 446.001c70 303.333 -1.33301 455 -214 455c-64 0 -122.333 -16.333 -175 -49s-94.167 -73.834 -124.5 -123.501s-50.5 -104.834 -60.5 -165.501s-8.5 -118.334 4.5 -173.001
s40.667 -103.667 83 -147s96.833 -72.333 163.5 -87c26 -4 43.167 -4.5 51.5 -1.5s16.166 8.16699 23.499 15.5s13.333 11.333 18 12c13.333 2.66699 22.166 -0.833008 26.499 -10.5s1.83301 -18.167 -7.5 -25.5c-7.33301 -6 -20 -10.333 -38 -13s-39.667 -2.5 -65 0.5
s-52 8.83301 -80 17.5s-55.5 22.667 -82.5 42s-51.5 42.333 -73.5 69s-39.667 61.334 -53 104.001s-20 90 -20 142c0 49.333 9.83301 98.5 29.5 147.5s46.667 93.167 81 132.5s77.5 71.166 129.5 95.499s107.667 36.5 167 36.5c83.333 0 149.333 -23.5 198 -70.5
s77 -117.833 85 -212.5s-11.667 -213 -59 -355c-10 -31.333 -21.833 -64.666 -35.5 -99.999l-37 -94l-34.5 -85c-12 -29.333 -21.833 -55 -29.5 -77s-14.334 -43.667 -20.001 -65s-8.33398 -39.5 -8.00098 -54.5s3 -28.167 8 -39.5s13.667 -19.833 26 -25.5
s28.5 -8.5 48.5 -8.5c37.333 0 75.333 12.833 114 38.5s73.167 58 103.5 97s57 79 80 120s40.5 79.5 52.5 115.5c28 82.667 64 124 108 124c6.66699 0 11.167 -0.833008 13.5 -2.5s3.16602 -3.16699 2.49902 -4.5s-1.66699 -2.66602 -3 -3.99902
c-22.667 -14 -42.334 -40.167 -59.001 -78.5s-40.667 -110.166 -72 -215.499c-28.667 -96.667 -58.667 -183 -90 -259zM360.009 -521.997c55.333 0 106.499 11.832 153.499 35.499s88.5 57.334 124.5 101.001s67.333 90.167 94 139.5s52.334 106 77.001 170
c-182 -11.333 -335.167 -47.5 -459.5 -108.5s-186.5 -130.833 -186.5 -209.5c0 -37.333 17.667 -68 53 -92s83.333 -36 144 -36z" />
    <glyph glyph-name="Z" unicode="Z" horiz-adv-x="1312" 
d="M1785 1167c24.667 14.667 42.335 14.6699 53.002 0.00292969c8 -10.667 7 -19.667 -3 -27c-1.33301 -1.33301 -2.66602 -2.33301 -3.99902 -3c-44 -20.667 -91 -49.834 -141 -87.501s-103.667 -84.167 -161 -139.5l-155.5 -154l-174.5 -182.5l-167 -175.5
c74 8.66699 143.5 29.167 208.5 61.5s111.167 73.833 138.5 124.5c11.333 21.333 26.333 29 45 23c15.333 -5.33301 23.333 -16 24 -32c-0.666992 -13.333 -7.33398 -25.666 -20.001 -36.999c-56 -46.667 -120.5 -84 -193.5 -112s-147.5 -44.667 -223.5 -50
c-166.667 -168.667 -308.667 -289 -426 -361c38 -28.667 84.833 -68.167 140.5 -118.5l149 -131.5c43.667 -37.333 92.5 -74.833 146.5 -112.5s110.667 -66.834 170 -87.501s120.333 -31 183 -31c99.333 0 181 30 245 90c48.667 45.333 73 94.333 73 147
c0 53.333 -26.667 91.666 -80 114.999c-30.667 13.333 -68 20 -112 20c-64 0 -121 -13.333 -171 -40s-84 -51 -102 -73c-10.667 -12.667 -22 -15 -34 -7c-10.667 7.33301 -12.667 16.333 -6 27c3.33301 4.66699 8.66602 9 15.999 13c134 70.667 247.667 106 341 106
c86.667 0 147 -26.333 181 -79c29.333 -45.333 31 -96.333 5 -153c-29.333 -63.333 -84.666 -111.666 -165.999 -144.999c-63.333 -25.333 -135.333 -38 -216 -38c-70 0 -136.833 9.83301 -200.5 29.5s-124.334 48.834 -182.001 87.501s-106.5 75 -146.5 109
s-88.333 78 -145 132s-99.334 93 -128.001 117c-91.333 -50 -174.333 -75 -249 -75c-103.333 0 -172 23.333 -206 70c-24 32 -24.667 65 -2 99c24.667 38.667 66.334 61 125.001 67c8.66699 0.666992 17.667 1 27 1c102 0 209.333 -41 322 -123
c112 69.333 248.333 183.666 409 342.999c-183.333 -2.66699 -321 43.666 -413 138.999c-68.667 71.333 -100.334 156.666 -95.001 255.999c5.33301 94.667 42 177.334 110 248.001c83.333 85.333 192.333 129.333 327 132h10c50 0 119.667 -5.5 209 -16.5l235.5 -28
c67.667 -7.66699 142 -7.33398 223 0.999023s149.833 28.833 206.5 61.5zM296.001 -64.9971c66 0 142.332 24.667 228.999 74c-104 83.333 -199.333 125 -286 125c-45.333 0 -78 -16.667 -98 -50c-19.333 -30.667 -19.333 -60.667 0 -90
c26.667 -39.333 78.334 -59 155.001 -59zM1725 1104c2.66699 1.33301 3.5 2.66797 2.5 4.00098s-2.83301 1.33301 -5.5 0c-46 -19.333 -105.833 -30.166 -179.5 -32.499s-143.667 0.666992 -210 9s-141.333 17.166 -225 26.499s-149.5 14 -197.5 14
c-130 0 -230.667 -42 -302 -126c-59.333 -69.333 -87 -151 -83 -245c4 -96 39.667 -177.333 107 -244c87.333 -86 207.666 -124.667 360.999 -116l267 278.5c118.667 126.333 213.834 223.666 285.501 291.999s131.5 114.833 179.5 139.5z" />
    <glyph glyph-name="bracketleft" unicode="[" horiz-adv-x="553" 
d="M994 1180c32 0 56.5049 -4.00293 73.5049 -12.0029s23.167 -18 18.5 -30c-3.33301 -8 -9.5 -12.667 -18.5 -14s-17.167 0 -24.5 4c-20 8.66699 -38 15.334 -54 20.001s-36.833 6.83398 -62.5 6.50098s-49.834 -5.66602 -72.501 -15.999s-49.334 -28.666 -80.001 -54.999
s-60.834 -60.333 -90.501 -102s-62.334 -96.5 -98.001 -164.5s-71.834 -146.667 -108.501 -236c-28 -68.667 -52.5 -132.834 -73.5 -192.501s-37.5 -113 -49.5 -160s-21.833 -90 -29.5 -129s-11.334 -73.667 -11.001 -104s1.33301 -57 3 -80s7 -43.667 16 -62
s17.333 -33.666 25 -45.999s18.5 -24 32.5 -35s25.667 -19.5 35 -25.5s21.666 -13.333 36.999 -22c0.666992 -0.666992 1.33398 -1 2.00098 -1c22 -12 30 -24.667 24 -38c-4.66699 -11.333 -15.834 -13.833 -33.501 -7.5s-38.167 20.5 -61.5 42.5
c-158.667 150 -147 437 35 861c42 98 82.5 181.667 121.5 251s81.333 131.166 127 185.499s94.834 94.833 147.501 121.5s109.334 40 170.001 40z" />
    <glyph glyph-name="backslash" unicode="\" horiz-adv-x="317" 
d="M242 -121c8.66699 -86.667 -5 -139.666 -41 -158.999c-12 -6.66699 -17.667 -6.66699 -17 0c0 1.33301 0.333008 2.33301 1 3c8 13.333 12.833 32.166 14.5 56.499s1.33398 51.666 -0.999023 81.999s-6.5 76.833 -12.5 139.5c-2 16.667 -3.33301 29.667 -4 39
c-2 20.667 -19 171.5 -51 452.5l-63 559.5c-9.33301 86.667 4 139.334 40 158.001c11.333 6.66699 17 6.66699 17 0c0 -1.33301 -0.333008 -2.33301 -1 -3c-6.66699 -11.333 -11.334 -24 -14.001 -38s-3.16699 -36.5 -1.5 -67.5s3.66699 -58.5 6 -82.5
s6.83301 -66.667 13.5 -128c9.33301 -88 29.833 -270 61.5 -546s49.167 -431.333 52.5 -466z" />
    <glyph glyph-name="bracketright" unicode="]" horiz-adv-x="566" 
d="M483 1133c159.333 -150 147.331 -437.329 -36.002 -861.996c-42 -98 -82.5 -181.667 -121.5 -251s-81.333 -131.166 -127 -185.499s-94.834 -94.833 -147.501 -121.5s-109.334 -40 -170.001 -40c-31.333 0 -55.5 4.16699 -72.5 12.5s-23.5 18.5 -19.5 30.5
c3.33301 8 9.5 12.667 18.5 14s17.5 0 25.5 -4c20 -8.66699 37.833 -15.334 53.5 -20.001s36.334 -6.83398 62.001 -6.50098s49.834 5.66602 72.501 15.999s49.334 28.5 80.001 54.5s60.834 59.833 90.501 101.5s62.5 96.667 98.5 165s72.333 147.166 109 236.499
c145.333 357.333 193.666 599 144.999 725c-17.333 45.333 -51 83 -101 113c-6.66699 4.66699 -17 10.667 -31 18l-1 1c-21.333 11.333 -29 23.666 -23 36.999c4.66699 11.333 15.834 14 33.501 8s38.167 -20 61.5 -42z" />
    <glyph glyph-name="asciicircum" unicode="^" horiz-adv-x="833" 
d="M602 773l9 0.000976562l101 -169h-53c-32 50.667 -57 88.667 -75 114l-138 -114h-30c104.667 97.333 166.667 153.666 186 168.999z" />
    <glyph glyph-name="underscore" unicode="_" horiz-adv-x="585" 
d="M510 -47h-411l12 34h412z" />
    <glyph glyph-name="grave" unicode="`" horiz-adv-x="522" 
d="M401 794c-24 -14.667 -41.001 -29.832 -51.001 -45.499s-14 -28.834 -12 -39.501s4.83301 -23.167 8.5 -37.5s4.83398 -25.5 3.50098 -33.5c-3.33301 -27.333 -17.666 -40 -42.999 -38c-7.33301 0 -15.5 3.16699 -24.5 9.5s-13.5 15.5 -13.5 27.5
c-0.666992 34 13 66.5 41 97.5s56 54.167 84 69.5c7.33301 4 11.333 3 12 -3c-0.666992 -2.66699 -2.33398 -5 -5.00098 -7z" />
    <glyph glyph-name="a" unicode="a" horiz-adv-x="540" 
d="M417 208c-20.667 -66.667 -30.6719 -110.672 -30.0049 -132.005c0.666992 -30 13.334 -45 38.001 -45c31.333 0 61.333 26.333 90 79c1.33301 2.66699 3.16602 3.66699 5.49902 3s2.83301 -3 1.5 -7c-9.33301 -30 -25.5 -56.333 -48.5 -79s-49.167 -34 -78.5 -34
c-22 0 -38.667 5.83301 -50 17.5s-17.166 27 -17.499 46s1.33398 37.333 5.00098 55s9.16699 35.834 16.5 54.501h-3c-16 -38.667 -43 -77 -81 -115s-77.333 -57 -118 -57c-41.333 0 -71.666 13.167 -90.999 39.5s-29 57.5 -29 93.5c0 50.667 15.833 106.5 47.5 167.5
s71.167 112.5 118.5 154.5s91.333 63 132 63c6.66699 0 13.334 -0.666992 20.001 -2s14.834 -4.66602 24.501 -9.99902s18 -12.166 25 -20.499s12.833 -20.666 17.5 -36.999s7 -35.5 7 -57.5h2c26.667 77.333 61.334 116 104.001 116c12 0 17.667 -2 17 -6
c0 -1.33301 -1 -2.66602 -3 -3.99902c-18.667 -12 -34.834 -34 -48.501 -66s-34.167 -91.333 -61.5 -178c-5.33301 -16.667 -9.33301 -29.667 -12 -39zM332.995 491.995c-48.667 0 -98.667 -34.667 -150 -104c-48.667 -66 -79 -135.333 -91 -208
c-13.333 -76 1.33398 -123.333 44.001 -142c12 -5.33301 25.667 -8 41 -8c34.667 0 70.667 23.333 108 70s66.666 100 87.999 160c22 58.667 31.333 105.167 28 139.5s-11 58.333 -23 72s-27 20.5 -45 20.5z" />
    <glyph glyph-name="b" unicode="b" horiz-adv-x="467" 
d="M975 1121c-2.66699 -8 -9.33008 -12.6689 -19.9971 -14.002s-20.334 1 -29.001 7c-34.667 21.333 -71.834 30.333 -111.501 27s-79.667 -15.5 -120 -36.5s-81.666 -53.5 -123.999 -97.5s-83.166 -95.667 -122.499 -155s-78 -129.5 -116 -210.5
s-72.667 -168.833 -104 -263.5c18 34.667 40.833 63.167 68.5 85.5s55.834 36.166 84.501 41.499s55.667 4.83301 81 -1.5s46 -21.5 62 -45.5s24 -54 24 -90c0 -56.667 -16.833 -115 -50.5 -175s-74.334 -108.833 -122.001 -146.5s-91.5 -56.5 -131.5 -56.5
c-126 0 -161.667 92.333 -107 277c27.333 93.333 58.666 182.5 93.999 267.5s76.666 166.333 123.999 244s97.666 144.834 150.999 201.501s112.5 101.834 177.5 135.501s131.833 50.5 200.5 50.5c31.333 0 55.5 -4.16699 72.5 -12.5s23.167 -19.166 18.5 -32.499z
M201.004 284.998c-29.333 -84.667 -41.167 -152.333 -35.5 -203s28.834 -76 69.501 -76c38 0 77 19.667 117 59s72.667 87 98 143s38 108.333 38 157c0 64.667 -20 104 -60 118c-37.333 12.667 -78.333 0 -123 -38s-79.334 -91.333 -104.001 -160z" />
    <glyph glyph-name="c" unicode="c" horiz-adv-x="419" 
d="M329 505c-36.667 0 -74.1641 -19 -112.497 -57s-69.5 -84.167 -93.5 -138.5s-36 -104.833 -36 -151.5c0 -38.667 8.33301 -69.5 25 -92.5s42.667 -34.5 78 -34.5c38 0 72.833 14.167 104.5 42.5s58.167 64.5 79.5 108.5c1.33301 3.33301 3.16602 5.5 5.49902 6.5
s4 0.666992 5 -1s1.16699 -4.5 0.5 -8.5c-12.667 -39.333 -39.834 -80.333 -81.501 -123s-86.834 -64 -135.501 -64c-41.333 0 -75.166 13.5 -101.499 40.5s-39.5 66.833 -39.5 119.5c0 51.333 14.167 105.333 42.5 162s66.666 104.834 114.999 144.501
s97.833 59.5 148.5 59.5c28 0 52.167 -8 72.5 -24s31.833 -34.167 34.5 -54.5s-2.66602 -40.5 -15.999 -60.5c-8.66699 -10.667 -19.834 -16.667 -33.501 -18s-25.167 2.66699 -34.5 12c-11.333 13.333 -16.333 25.666 -15 36.999s6 20.333 14 27
c16.667 14 22.5 28.833 17.5 44.5s-19.5 23.5 -43.5 23.5z" />
    <glyph glyph-name="d" unicode="d" horiz-adv-x="552" 
d="M1039 1181c31.333 0 55.666 -4.16797 72.999 -12.501s24.333 -18.5 21 -30.5c-2.66699 -8 -8.5 -12.667 -17.5 -14s-17.5 0 -25.5 4c-26 11.333 -50.333 19 -73 23s-48.834 3 -78.501 -3s-58.167 -18.833 -85.5 -38.5s-57.5 -50.167 -90.5 -91.5s-65.5 -93 -97.5 -155
c-28 -54 -66.667 -149.333 -116 -286s-91.666 -259.667 -126.999 -369c-24 -74.667 -33.333 -124 -28 -148c4.66699 -19.333 17 -29 37 -29c30.667 0 60.334 26.333 89.001 79c1.33301 2.66699 3.16602 3.66699 5.49902 3s3.16602 -3 2.49902 -7
c-10 -30 -26.833 -56.333 -50.5 -79s-50.167 -34 -79.5 -34c-22.667 0 -39.334 7 -50.001 21s-15 32.5 -13 55.5s4.33301 41.333 7 55s6.33398 27.5 11.001 41.5h-2c-16 -38.667 -43.167 -77 -81.5 -115s-78.5 -57 -120.5 -57c-39.333 0 -68.666 13.333 -87.999 40
s-29 57.667 -29 93c0 50.667 16 106.5 48 167.5s71.667 112.5 119 154.5s91 63 131 63c8.66699 0 17.5 -1.5 26.5 -4.5s19 -8.33301 30 -16s20 -20.667 27 -39s10.5 -40.833 10.5 -67.5l2 -1l53 155c16.667 46.667 35.334 95.334 56.001 146.001s41.667 96 63 136
s44.333 79.5 69 118.5s50.5 72.5 77.5 100.5s55.833 53 86.5 75s63.5 38.5 98.5 49.5s71.5 16.5 109.5 16.5zM378 259.999c22 58.667 31.335 105.167 28.002 139.5s-11 58.333 -23 72s-27 20.5 -45 20.5c-48.667 0 -98.334 -34.667 -149.001 -104
c-48.667 -66 -79.334 -135.333 -92.001 -208c-13.333 -76 1.33398 -123.333 44.001 -142c12 -5.33301 25.667 -8 41 -8c34.667 0 70.667 23.333 108 70s66.666 100 87.999 160z" />
    <glyph glyph-name="e" unicode="e" horiz-adv-x="419" 
d="M460 422c0 -92.667 -120.329 -184.333 -360.996 -275c-1.33301 -34 5.66699 -62.167 21 -84.5s39.666 -33.5 72.999 -33.5c67.333 0 129.666 49.667 186.999 149c4 6 7.33301 8.16699 10 6.5s3 -5.5 1 -11.5c-2.66699 -8 -9 -20.167 -19 -36.5s-23.833 -36 -41.5 -59
s-40.834 -42.667 -69.501 -59s-58.667 -24.5 -90 -24.5c-72.667 0 -115.334 32 -128.001 96c-12 60.667 3.33301 131.667 46 213c42 80.667 95.333 140 160 178c38 22.667 76 34 114 34c27.333 0 50.333 -9 69 -27s28 -40 28 -66zM346.004 495.001
c-39.333 0 -77.8311 -18.167 -115.498 -54.5s-67.834 -79.666 -90.501 -129.999s-36 -98.5 -40 -144.5c147.333 51.333 243.666 114.666 288.999 189.999c26 44 29.667 81 11 111c-12 18.667 -30 28 -54 28z" />
    <glyph glyph-name="f" unicode="f" horiz-adv-x="338" 
d="M264 473l-202.999 -652c-18 -56.667 -39.833 -105.834 -65.5 -147.501s-51.834 -73 -78.501 -94s-51.334 -36.333 -74.001 -46s-43.667 -14.5 -63 -14.5c-47.333 0 -88.666 9.66699 -123.999 29c-32 19.333 -39.333 39.333 -22 60c14 14 28.333 14.333 43 1
c4 -3.33301 10.5 -12.5 19.5 -27.5s20 -26.667 33 -35s30.833 -12.5 53.5 -12.5c42.667 0 83 24 121 72s69 107.333 93 178c34 98.667 96.333 299 187 601c3.33301 12.667 5.16602 23.834 5.49902 33.501s-0.166992 17.5 -1.5 23.5s-5 11.167 -11 15.5s-11 7.5 -15 9.5
s-10.833 3.5 -20.5 4.5s-16.667 1.5 -21 1.5h-22.5c-8 0 -13.333 2.16699 -16 6.5s-2.5 8.66602 0.5 12.999s7.5 6.5 13.5 6.5h122c40.667 135.333 85.167 231.666 133.5 288.999s102.5 86 162.5 86c40 0 71.167 -7.83301 93.5 -23.5s34.166 -34.5 35.499 -56.5
c0.666992 -18 -8.33301 -30 -27 -36c-20.667 -4.66699 -35.334 3.33301 -44.001 24c-0.666992 1.33301 -3 8.83301 -7 22.5s-7.5 22.834 -10.5 27.501s-9.83301 10 -20.5 16s-24 9 -40 9c-26 0 -49.5 -8.66699 -70.5 -26s-39.5 -41.833 -55.5 -73.5
s-30.167 -64.167 -42.5 -97.5s-25.166 -71.666 -38.499 -114.999c-6 -20.667 -10.667 -36 -14 -46h161c6.66699 0 11.334 -2.16699 14.001 -6.5s2.33398 -8.83301 -0.999023 -13.5s-8.33301 -7 -15 -7c-2.66699 0 -28.5 0.166992 -77.5 0.5s-79.167 0.5 -90.5 0.5z" />
    <glyph glyph-name="g" unicode="g" horiz-adv-x="490" 
d="M348 165l-3.00195 0.00292969c-15.333 -38 -42.333 -76.167 -81 -114.5s-78 -57.5 -118 -57.5c-41.333 0 -71.666 13.167 -90.999 39.5s-29 57.5 -29 93.5c0 50.667 15.833 106.5 47.5 167.5s71.167 112.5 118.5 154.5s91.333 63 132 63
c8.66699 0 17.334 -1.33301 26.001 -4s18.5 -7.83398 29.5 -15.501s20 -20.834 27 -39.501s10.833 -41.334 11.5 -68.001l2 -1c26 78 60.667 117 104 117c11.333 0 17 -2 17 -6c-0.666992 -1.33301 -1.66699 -2.66602 -3 -3.99902c-18.667 -12.667 -34.5 -34.5 -47.5 -65.5
s-33.5 -89.833 -61.5 -176.5c-2 -5.33301 -3.5 -9.66602 -4.5 -12.999l-4 -13l-4.5 -15l-57.5 -181l-53.5 -169c-13.333 -41.333 -24.333 -73 -33 -95c-30.667 -80.667 -73.167 -140.334 -127.5 -179.001s-112.5 -58 -174.5 -58c-48 0 -90.5 8.5 -127.5 25.5
s-64.5 38.5 -82.5 64.5s-28.667 54.833 -32 86.5s1.5 61.667 14.5 90s35.5 53.666 67.5 75.999s71 37.166 117 44.499c10 1.33301 31.167 3.83301 63.5 7.5s56.5 7 72.5 10s34.833 9.16699 56.5 18.5s38.5 21.333 50.5 36c2.66699 4 5 3 7 -3
c1.33301 -4 0.666016 -8.33301 -2.00098 -13c-10.667 -16.667 -26.167 -28.667 -46.5 -36s-53.5 -14.5 -99.5 -21.5s-79.667 -12.833 -101 -17.5c-36 -8 -66.333 -22.667 -91 -44s-41.5 -45 -50.5 -71s-11.833 -53.167 -8.5 -81.5s12.666 -54.166 27.999 -77.499
s37.333 -42.5 66 -57.5s61.667 -22.5 99 -22.5c50.667 0 97.834 15 141.501 45s75.834 75.333 96.501 136c24.667 72 48.5 145.167 71.5 219.5s39.833 130.5 50.5 168.5zM331.998 491.003c-48.667 0 -98.333 -34.666 -149 -103.999
c-48.667 -66.667 -79.334 -136.334 -92.001 -209.001c-13.333 -76.667 1.66699 -123.667 45 -141c10.667 -4.66699 23.334 -7 38.001 -7c36.667 0 73.5 23 110.5 69s66.167 99.333 87.5 160c12 34 20 64.667 24 92s4.66699 49.5 2 66.5s-7.5 31.167 -14.5 42.5
s-14.833 19.333 -23.5 24s-18 7 -28 7z" />
    <glyph glyph-name="h" unicode="h" horiz-adv-x="516" 
d="M17 -7c-2 -0.666992 -3.83301 -0.165039 -5.5 1.50195s-2.16699 3.5 -1.5 5.5l56 175c77.333 247.333 139 424.666 185 531.999c93.333 216.667 197.666 358 312.999 424c56.667 32.667 117.667 49 183 49c32 0 56.5 -4 73.5 -12s23.5 -18 19.5 -30
c-5.33301 -16.667 -19.666 -20 -42.999 -10c-26 11.333 -50.333 19 -73 23s-48.834 3 -78.501 -3s-58.167 -18.833 -85.5 -38.5s-57.5 -50.167 -90.5 -91.5s-65.5 -93 -97.5 -155c-74 -143.333 -135.333 -302 -184 -476l3 -1c20.667 35.333 47.167 65.5 79.5 90.5
s68.833 37.5 109.5 37.5c38 0 63.167 -15.667 75.5 -47s8.83301 -72.666 -10.5 -123.999c-10.667 -25.333 -35.334 -96.333 -74.001 -213c-22.667 -68 -13.667 -102 27 -102c19.333 0 37.333 8 54 24s29.667 35.667 39 59c0.666992 1.33301 2 2.16602 4 2.49902
s3.33301 -0.333984 4 -2.00098s0.666992 -3.5 0 -5.5c-9.33301 -30 -24.833 -56.5 -46.5 -79.5s-47.167 -34.5 -76.5 -34.5c-70 0 -90.667 47.333 -62 142c8.66699 28.667 24.334 74.167 47.001 136.5s36.334 103.833 41.001 124.5c6.66699 28.667 5.5 51.334 -3.5 68.001
s-23.833 25 -44.5 25c-38 0 -75.333 -20.167 -112 -60.5s-62.667 -84.5 -78 -132.5c-28.667 -90 -59 -178.667 -91 -266c-3.33301 -8.66699 -9 -15 -17 -19c-24 -10.667 -37 -16.334 -39 -17.001z" />
    <glyph glyph-name="i" unicode="i" horiz-adv-x="256" 
d="M73 456c-2 2 -1.66797 4.66602 0.999023 7.99902c12 11.333 28.5 22.166 49.5 32.499s39.5 15.5 55.5 15.5c28 0 45.833 -10.167 53.5 -30.5s6.16699 -44.5 -4.5 -72.5c-6 -18.667 -25.667 -70 -59 -154s-52.333 -136 -57 -156c-1.33301 -10 -1.83301 -20 -1.5 -30
s3.5 -18.833 9.5 -26.5s14.667 -11.5 26 -11.5c12.667 0 25.5 4.5 38.5 13.5s22.5 17.5 28.5 25.5s15 21 27 39c4.66699 5.33301 7.33398 6 8.00098 2c0.666992 -1.33301 0.666992 -2.66602 0 -3.99902c-12 -30.667 -30.667 -57.334 -56 -80.001s-51.333 -34 -78 -34
c-31.333 0 -51 12.5 -59 37.5s-4.66699 56.5 10 94.5l116 292c15.333 40.667 11.833 64.834 -10.5 72.501s-50.5 -3.16602 -84.5 -32.499c-6 -4.66699 -10.333 -5 -13 -1zM264.999 611.999c-11.333 0 -21 4.16699 -29 12.5s-12 18.166 -12 29.499c0 10.667 4 20.167 12 28.5
s17.667 12.5 29 12.5s21 -4 29 -12s12 -17.667 12 -29s-4 -21.166 -12 -29.499s-17.667 -12.5 -29 -12.5z" />
    <glyph glyph-name="j" unicode="j" horiz-adv-x="257" 
d="M263 408c-8.66699 -29.333 -69.3359 -224.332 -182.003 -584.999c-18 -56 -39.833 -105 -65.5 -147s-51.667 -73.5 -78 -94.5s-50.666 -36.333 -72.999 -46s-42.833 -14.5 -61.5 -14.5c-48.667 0 -91 9.66699 -127 29c-33.333 18.667 -40.666 38.667 -21.999 60
c14 14 28.333 14.333 43 1c4 -3.33301 10.5 -12.5 19.5 -27.5s20 -26.667 33 -35s30.833 -12.5 53.5 -12.5c42.667 0 83 24 121 72s69 107.333 93 178c30 88 95.333 298.333 196 631c12.667 42 7.66699 66.667 -15 74c-27.333 8.66699 -69 -13 -125 -65
c-5.33301 -4.66699 -9.66602 -5.33398 -12.999 -2.00098c-2 2.66699 -2 5.66699 0 9c55.333 52.667 105.333 79 150 79c27.333 0 45.5 -10.333 54.5 -31s8.5 -45 -1.5 -73zM290.998 612.001c-11.333 0 -21 4 -29 12s-12 17.667 -12 29s4 21 12 29s17.667 12 29 12
s21 -4 29 -12s12 -17.667 12 -29s-4 -21 -12 -29s-17.667 -12 -29 -12z" />
    <glyph glyph-name="k" unicode="k" horiz-adv-x="512" 
d="M743 1180c32 0 56.502 -4.00684 73.502 -12.0068s23.5 -18 19.5 -30c-5.33301 -16.667 -19.666 -20 -42.999 -10c-21.333 9.33301 -41.5 16 -60.5 20s-40.167 5.5 -63.5 4.5s-46.333 -7.33301 -69 -19s-46.5 -28 -71.5 -49s-51 -50.333 -78 -88
s-54.167 -82.167 -81.5 -133.5c-52.667 -98.667 -120.667 -281.667 -204 -549c-2 -7.33301 -0.5 -12.833 4.5 -16.5s13.833 -5.5 26.5 -5.5c27.333 0 54 11.333 80 34s47.833 47.667 65.5 75s38.667 52.333 63 75s48.833 34 73.5 34s41.334 -9.16699 50.001 -27.5
s10.167 -37.833 4.5 -58.5s-14.167 -35.667 -25.5 -45c-9.33301 -7.33301 -20 -11.166 -32 -11.499s-21.667 3.16699 -29 10.5c-8 7.33301 -11.833 16.833 -11.5 28.5s4.5 21.834 12.5 30.501c3.33301 3.33301 8.16602 6.83301 14.499 10.5s11.333 7.33398 15 11.001
s5.83398 8.5 6.50098 14.5c1.33301 6 0.333008 11 -3 15s-8 6 -14 6c-14.667 0 -30.667 -8.5 -48 -25.5s-33.166 -36.5 -47.499 -58.5s-32.333 -44.667 -54 -68s-42.5 -39.666 -62.5 -48.999c42 0.666992 68.667 -7.33301 80 -24s13.333 -37.334 6 -62.001
c-19.333 -62.667 -29.333 -103.667 -30 -123c0 -35.333 13.333 -53.333 40 -54c28.667 0 58 26.333 88 79c1.33301 3.33301 3.33301 4.33301 6 3c1.33301 -1.33301 1.66602 -3.66602 0.999023 -6.99902c-10 -30 -27 -56.333 -51 -79s-50.667 -34 -80 -34
c-18 0 -32 4.66699 -42 14s-16.167 20.5 -18.5 33.5s-2.33301 29 0 48s5.33301 35.833 9 50.5s8.16699 30.667 13.5 48c2 6 3.33301 10.333 4 13l3 8c2 5.33301 3.16699 8.83301 3.5 10.5s1 5.33398 2 11.001s1.16699 9.66699 0.5 12s-1.33398 5.83301 -2.00098 10.5
s-2.5 8.16699 -5.5 10.5l-10 7.5c-3.66699 2.66699 -8.83398 4.5 -15.501 5.5s-14.334 1.5 -23.001 1.5c-52 0 -87 -26.333 -105 -79l-48 -164c-3.33301 -9.33301 -9 -15.666 -17 -18.999c-2.66699 -1.33301 -7.83398 -3.66602 -15.501 -6.99902l-21 -9.5
c-6.33301 -3 -10.166 -4.5 -11.499 -4.5c-2 -0.666992 -3.83301 -0.166992 -5.5 1.5s-2.16699 3.5 -1.5 5.5l60 188c77.333 244.667 138.666 420 183.999 526c91.333 212.667 194 351.667 308 417c56.667 32.667 117.667 49 183 49z" />
    <glyph glyph-name="l" unicode="l" horiz-adv-x="239" 
d="M45 165c30 96 57.1777 179.331 81.5107 249.998s51.333 143.334 81 218.001s58.167 138 85.5 190s57.666 101.833 90.999 149.5s67.5 85.834 102.5 114.501s73.5 51.334 115.5 68.001s86.333 25 133 25c32 0 56.667 -4.16699 74 -12.5s24 -18.5 20 -30.5
c-2.66699 -8 -8.5 -12.667 -17.5 -14s-17.5 0 -25.5 4c-26 11.333 -50.5 19 -73.5 23s-49.333 3 -79 -3s-58.334 -18.833 -86.001 -38.5s-57.834 -50.167 -90.501 -91.5s-65.334 -93 -98.001 -155c-28.667 -54 -67.5 -149 -116.5 -285s-91.5 -259.333 -127.5 -370
c-23.333 -72 -33 -120 -29 -144c3.33301 -22 15.666 -33 36.999 -33c31.333 0 61.333 26.333 90 79c1.33301 2.66699 3.16602 3.66699 5.49902 3s3.16602 -3 2.49902 -7c-10 -30 -26.833 -56.333 -50.5 -79s-49.834 -34 -78.501 -34c-11.333 0 -21.333 1.5 -30 4.5
s-15.334 7.66699 -20.001 14s-8.66699 12.666 -12 18.999s-5 14.5 -5 24.5s0.166992 18.5 0.5 25.5s1.66602 16 3.99902 27s4.16602 18.833 5.49902 23.5l6 21z" />
    <glyph glyph-name="m" unicode="m" horiz-adv-x="767" 
d="M749 109c1.33301 2.66699 3.00488 4.32422 5.00488 4.99121s3.5 0.333984 4.5 -0.999023s1.16699 -3.33301 0.5 -6c-10.667 -31.333 -27 -58.166 -49 -80.499s-47.333 -33.5 -76 -33.5c-20.667 0 -37.334 4.16699 -50.001 12.5s-21.334 23 -26.001 44
s0.333008 49.5 15 85.5c14 36.667 44 109.334 90 218.001c36.667 88 28.667 132 -24 132c-30 0 -65 -21.667 -105 -65s-70.667 -94.333 -92 -153l-40.5 -114l-31 -87.5c-7 -19.667 -11.167 -30.834 -12.5 -33.501c-6 -13.333 -14.667 -22.333 -26 -27
c-4 -1.33301 -10.667 -3 -20 -5s-14.666 -3.33301 -15.999 -4c-3.33301 -2 -6.33301 -2.16699 -9 -0.5s-3 4.83398 -1 9.50098l118 317c19.333 52 29.666 87 30.999 105c1.33301 38.667 -16 58.334 -52 59.001c-32 0 -67.333 -23 -106 -69s-65.334 -88.667 -80.001 -128
l-101 -256c-4 -11.333 -11.667 -19.333 -23 -24c-10.667 -4.66699 -23.667 -9.66699 -39 -15c-3.33301 -1.33301 -6 -1 -8 1s-2.33301 5 -1 9c0 0.666992 6.83301 18.5 20.5 53.5l44.5 114.5l47.5 124.5l31.5 83.5c10.667 30.667 14.667 55.834 12 75.501
s-12.667 29.5 -30 29.5c-10.667 0 -23.5 -6.83301 -38.5 -20.5s-26.167 -25.334 -33.5 -35.001l-18 -24.5c-3.33301 -4.66699 -7 -5.33398 -11 -2.00098c-1.33301 2 -1 4.66699 1 8l15.5 21.5c5.66699 7.66699 15 18.834 28 33.501s27.333 26.667 43 36s30.5 14 44.5 14
c18.667 0 32.5 -5.83301 41.5 -17.5s13.333 -26.167 13 -43.5s-1.83301 -33 -4.5 -47s-6 -26.333 -10 -37h3c18 32.667 45.167 64.834 81.5 96.501s71.166 47.5 104.499 47.5c21.333 0 38.333 -4.5 51 -13.5s20.834 -19.167 24.501 -30.5s5 -24.666 4 -39.999
s-2.66699 -27.333 -5 -36s-4.83301 -16.667 -7.5 -24h1c21.333 38 49.5 71.5 84.5 100.5s70.167 43.5 105.5 43.5s58.166 -13.833 68.499 -41.5s6.16602 -65.167 -12.501 -112.5c-54 -131.333 -87.667 -215 -101 -251c-2.66699 -7.33301 -4.66699 -15.166 -6 -23.499
s-1.5 -17.166 -0.5 -26.499s4.66699 -17 11 -23s15.5 -9 27.5 -9c18 0 35.5 7.33301 52.5 22s30.5 34.334 40.5 59.001z" />
    <glyph glyph-name="n" unicode="n" horiz-adv-x="527" 
d="M411 323c23.333 60 34.002 100.33 32.002 120.997c-3.33301 27.333 -21.333 41.333 -54 42c-32 0 -68.333 -23.333 -109 -70s-68.334 -89 -83.001 -127l-101 -256c-4 -11.333 -11.667 -19.333 -23 -24c-10.667 -4.66699 -23.667 -9.66699 -39 -15
c-3.33301 -1.33301 -6 -1 -8 1s-2.33301 5 -1 9c0 0.666992 6.83301 18.5 20.5 53.5l44.5 114.5l47.5 124.5l31.5 83.5c24 70 18 105 -18 105c-10.667 0 -23.5 -6.83301 -38.5 -20.5s-26.167 -25.334 -33.5 -35.001l-18 -24.5c-3.33301 -4.66699 -7 -5.33398 -11 -2.00098
c-1.33301 2 -1 4.66699 1 8l15.5 21.5c5.66699 7.66699 15 18.834 28 33.501s27.333 26.667 43 36s30.5 14 44.5 14c18.667 0 32.5 -5.83301 41.5 -17.5s13.333 -26.167 13 -43.5s-1.83301 -33 -4.5 -47s-6 -26.333 -10 -37h3c17.333 32 45.166 64 83.499 96
s74.5 48 108.5 48c26 0 46 -5.5 60 -16.5s21.667 -25 23 -42s1 -32.167 -1 -45.5s-5.33301 -26 -10 -38l-52 -132l-43 -109c-27.333 -68.667 -20 -103 22 -103c22.667 0 42 8.5 58 25.5s28 35.167 36 54.5c2.66699 4.66699 5.33398 6.66699 8.00098 6s3 -3.33398 1 -8.00098
c-2 -6.66699 -5.33301 -14.667 -10 -24s-11.834 -21.666 -21.501 -36.999s-22.334 -28.166 -38.001 -38.499s-32.167 -15.5 -49.5 -15.5c-12 0 -22.667 1 -32 3s-16.833 5.33301 -22.5 10s-10.5 9.83398 -14.5 15.501s-6.33301 12.834 -7 21.501
s-0.833984 17.167 -0.500977 25.5s2 18.5 5 30.5s6 23 9 33s7.16699 22.5 12.5 37.5s10.333 28.167 15 39.5l17 42c4 10.667 7.33301 18.834 10 24.501s5.83398 13.167 9.50098 22.5s6.83398 18 9.50098 26z" />
    <glyph glyph-name="o" unicode="o" horiz-adv-x="474" 
d="M178 -6c-41.333 0 -73.3359 11.498 -96.0029 34.498s-35.167 51.833 -37.5 86.5s0.166992 70.667 7.5 108s18.333 71.333 33 102s29.334 53 44.001 67c4 4 6 3.66699 6 -1c3.33301 -13.333 11 -26 23 -38c6 -6 6.33301 -12 1 -18c-20 -32 -36 -67 -48 -105
s-18.667 -73.667 -20 -107s5.33398 -61.166 20.001 -83.499s37 -33.5 67 -33.5c39.333 0 75.833 21.167 109.5 63.5s62.834 96.5 87.501 162.5c14 36.667 24 70.5 30 101.5s8.16699 59.333 6.5 85s-9.66699 45.834 -24 60.501s-34.833 22 -61.5 22
c-21.333 0 -41.333 -5.5 -60 -16.5s-28 -25.167 -28 -42.5c0 -4.66699 1.33301 -10.834 4 -18.501s4 -14.167 4 -19.5c0 -12 -4.5 -22.667 -13.5 -32s-19.5 -14 -31.5 -14c-12.667 0 -23.167 4.5 -31.5 13.5s-12.5 19.833 -12.5 32.5c0 24 17 48.333 51 73s73.667 37 119 37
c68 0 110 -32.667 126 -98c15.333 -61.333 5.66602 -132.666 -29.001 -213.999c-35.333 -81.333 -83 -140.333 -143 -177c-33.333 -20.667 -67.666 -31 -102.999 -31z" />
    <glyph glyph-name="p" unicode="p" horiz-adv-x="509" 
d="M210 378c60.667 90 122.997 134.999 186.997 134.999c34 0 61.833 -13.833 83.5 -41.5s32.5 -64.167 32.5 -109.5c0 -50.667 -13.5 -104.334 -40.5 -161.001s-65 -105.667 -114 -147s-100.5 -62 -154.5 -62c-36 0 -61.333 9.33301 -76 28s-22 39.667 -22 63v9l-93 -268
c-19.333 -56.667 -42.333 -105.667 -69 -147s-53.5 -72.666 -80.5 -93.999s-51.833 -36.833 -74.5 -46.5s-43.667 -14.834 -63 -15.501c-35.333 0 -70.166 6.33301 -104.499 19s-51.5 28.667 -51.5 48c0 6.66699 2.83301 13.667 8.5 21s13.5 11 23.5 11
s18.667 -4.33301 26 -13s13.5 -18.167 18.5 -28.5s14.333 -19.833 28 -28.5s31.167 -13 52.5 -13c42 0 82.833 23.833 122.5 71.5s72.834 106.834 99.501 177.501c38.667 103.333 106.667 301.333 204 594c9.33301 28 14 50.667 14 68c0 24.667 -9.66699 37 -29 37
c-10 0 -22.667 -6.66699 -38 -20s-27.166 -25.333 -35.499 -36l-18.5 -24c-2 -3.33301 -4.33301 -4.66602 -7 -3.99902s-4 2.66699 -4 6c0 10.667 16.833 31.5 50.5 62.5s62.5 46.5 86.5 46.5c34 0 51 -18.333 51 -55c0 -20 -5.66699 -47.667 -17 -83h4zM200.997 9.99902
c38.667 0 78.5 21.3311 119.5 63.998s74.5 93.5 100.5 152.5s39 112.5 39 160.5c0 32.667 -6.5 57.334 -19.5 74.001s-30.5 25 -52.5 25c-34 0 -71 -18.5 -111 -55.5s-73.333 -87.833 -100 -152.5c-33.333 -81.333 -50 -143.666 -50 -186.999c0 -54 24.667 -81 74 -81z" />
    <glyph glyph-name="q" unicode="q" horiz-adv-x="489" 
d="M292 -495c-23.333 0 -42.8301 3.16016 -58.4971 9.49316s-27.167 15.333 -34.5 27s-12.5 24.167 -15.5 37.5s-3.16699 29 -0.5 47s5.66699 34.167 9 48.5s8 30.833 14 49.5l142 442h-2c-16 -38 -42.833 -76.167 -80.5 -114.5s-76.834 -57.5 -117.501 -57.5
c-41.333 0 -71.833 13.167 -91.5 39.5s-29.5 57.5 -29.5 93.5c0 50.667 16 106.5 48 167.5s71.667 112.5 119 154.5s91 63 131 63c6.66699 0 13.334 -0.666992 20.001 -2s14.667 -4.66602 24 -9.99902s17.5 -12.166 24.5 -20.499s13 -20.666 18 -36.999s7.5 -35.5 7.5 -57.5
l2 -1c26.667 78 62 117 106 117c10.667 0 16 -1.66699 16 -5c-0.666992 -1.33301 -2 -3 -4 -5c-18.667 -12.667 -34.5 -34.5 -47.5 -65.5s-33.5 -89.833 -61.5 -176.5c-2 -5.33301 -3.5 -9.66602 -4.5 -12.999l-4 -13l-4.5 -15l-151 -451
c-6.66699 -20 -12.334 -38.333 -17.001 -55s-9.16699 -34.5 -13.5 -53.5s-6.66602 -35.667 -6.99902 -50s0.666992 -27.666 3 -39.999s7.66602 -21.666 15.999 -27.999s19.166 -9.5 32.499 -9.5c14.667 0 27 2.83301 37 8.5s19.5 14.167 28.5 25.5s14.833 18 17.5 20
c14.667 12.667 27.167 14.5 37.5 5.5s8.5 -21.5 -5.5 -37.5c-8.66699 -10 -21.334 -18.167 -38.001 -24.5s-30.167 -10.166 -40.5 -11.499s-18.5 -2 -24.5 -2zM333.003 491.993c-48.667 0 -98.332 -34.667 -148.999 -104c-48.667 -66.667 -79.334 -136 -92.001 -208
c-14 -76 0.666992 -123.333 44 -142c11.333 -4.66699 24.333 -7 39 -7c36.667 0 73.5 23 110.5 69s66.167 99.333 87.5 160c12 34 20 64.667 24 92s4.66699 49.5 2 66.5s-7.5 31.167 -14.5 42.5s-14.833 19.333 -23.5 24s-18 7 -28 7z" />
    <glyph glyph-name="r" unicode="r" horiz-adv-x="460" 
d="M170 212c-2 -6.66699 -12.167 -37.1689 -30.5 -91.502s-28.5 -84.166 -30.5 -89.499c-4 -11.333 -11.333 -19.333 -22 -24c-13.333 -5.33301 -24.666 -9.66602 -33.999 -12.999c-3.33301 -1.33301 -6 -1 -8 1s-2.33301 5 -1 9l28 83.5l58 173.5l40 119
c7.33301 20.667 11.666 38.834 12.999 54.501s-0.666992 28 -6 37s-14 13.5 -26 13.5c-10 0 -22.667 -6.83301 -38 -20.5s-26.833 -25.5 -34.5 -35.5s-13.5 -18 -17.5 -24c-3.33301 -4.66699 -7 -5.33398 -11 -2.00098c-1.33301 2 -1 4.66699 1 8c4 6 9.16699 13 15.5 21
s16 19.333 29 34s27.167 26.667 42.5 36s30 14 44 14c18.667 0 32.5 -5.83301 41.5 -17.5s13.167 -26.167 12.5 -43.5s-2.33398 -33 -5.00098 -47s-6 -26.333 -10 -37h3c58.667 96.667 123 145 193 145c22 0 40.333 -7.33301 55 -22s22 -32 22 -52
c0 -24 -6.16699 -43.5 -18.5 -58.5s-25.833 -22 -40.5 -21s-27.334 7.16699 -38.001 18.5c-9.33301 12 -11.333 25.5 -6 40.5s16.333 24.833 33 29.5c17.333 4.66699 24 13.667 20 27c-7.33301 14.667 -20.666 22.667 -39.999 24c-38 0 -80.167 -27.333 -126.5 -82
s-82.166 -124 -107.499 -208z" />
    <glyph glyph-name="s" unicode="s" horiz-adv-x="387" 
d="M400 431c0 -21.333 -6.32812 -36.8311 -18.9951 -46.498s-25.334 -12.167 -38.001 -7.5c-12 4.66699 -19.5 12.334 -22.5 23.001s-2.16699 19.667 2.5 27c2 4.66699 6.16699 11 12.5 19s9.5 14.333 9.5 19c0 25.333 -19 38 -57 38c-28 0.666992 -54.833 -8 -80.5 -26
s-38.5 -40.667 -38.5 -68c0 -19.333 5.5 -38.5 16.5 -57.5s24.333 -36.333 40 -52l47.5 -47c16 -15.667 29.5 -33.167 40.5 -52.5s16.5 -39 16.5 -59c0 -8.66699 -1.16699 -18.334 -3.5 -29.001s-7.5 -23.5 -15.5 -38.5s-18.333 -28.333 -31 -40
s-30.834 -21.5 -54.501 -29.5s-50.5 -11.667 -80.5 -11c-33.333 0.666992 -63 9.16699 -89 25.5s-39 42.833 -39 79.5c-0.666992 23.333 4 40.5 14 51.5s21.333 15.5 34 13.5c10 -1.33301 17.833 -5.5 23.5 -12.5s8.16699 -15.167 7.5 -24.5
c-0.666992 -12.667 -4.83398 -25.334 -12.501 -38.001s-11.5 -23.667 -11.5 -33c0 -15.333 8.16699 -27 24.5 -35s32.5 -12 48.5 -12c86 0 129 38.333 129 115c0 19.333 -8.33301 40.166 -25 62.499s-34.834 42 -54.501 59s-37.834 37.167 -54.501 60.5s-25 46 -25 68
c0 45.333 18.833 80.5 56.5 105.5s80.834 37.5 129.501 37.5c6.66699 0 14.5 -1 23.5 -3s19.667 -5.5 32 -10.5s22.666 -13.667 30.999 -26s12.5 -27.5 12.5 -45.5z" />
    <glyph glyph-name="t" unicode="t" horiz-adv-x="288" 
d="M252 518l40.002 112.002c15.333 42.667 31.666 72.334 48.999 89.001s36.666 25.667 57.999 27c6.66699 0.666992 11.667 0.166992 15 -1.5s4.66602 -3.33398 3.99902 -5.00098s-1 -2.83398 -1 -3.50098c-29.333 -19.333 -52.666 -51 -69.999 -95
c-6 -14 -21 -55.333 -45 -124c0 -0.666992 0.333008 -1 1 -1h135c6.66699 0 11.334 -2.33301 14.001 -7s2.33398 -9.16699 -0.999023 -13.5s-8.33301 -6.5 -15 -6.5h-142c-1.33301 0 -2.33301 -0.666992 -3 -2c-48.667 -135.333 -81 -228 -97 -278
c-23.333 -68 -34.333 -113.667 -33 -137c1.33301 -26 13.333 -39.667 36 -41c32 -1.33301 63 25 93 79c1.33301 2.66699 3.16602 3.5 5.49902 2.5s2.83301 -3.16699 1.5 -6.5c-10 -30 -27 -56.5 -51 -79.5s-50.667 -34.167 -80 -33.5c-66 2 -79 59.333 -39 172
c0.666992 1.33301 5.66699 14.5 15 39.5l32.5 90.5c12.333 35.333 23.166 68 32.499 98c20.667 64.667 18.667 97 -6 97c-8 0 -13.333 2.16699 -16 6.5s-2.5 8.66602 0.5 12.999s7.83301 6.5 14.5 6.5h49c1.33301 0 2.33301 0.666992 3 2z" />
    <glyph glyph-name="u" unicode="u" 
d="M352 142c-11.333 -20 -25.499 -40.168 -42.499 -60.501s-40.833 -40.333 -71.5 -60s-61.334 -29.167 -92.001 -28.5c-31.333 0.666992 -55.166 8.33398 -71.499 23.001s-24.333 32.5 -24 53.5s4.5 43.5 12.5 67.5l42 97.5l42.5 97.5
c11.667 26.667 18.834 43.667 21.501 51c28 68.667 23.333 103.667 -14 105c-10 0 -22.667 -6.66699 -38 -20s-27.166 -25.333 -35.499 -36l-18.5 -24c-4.66699 -4.66699 -8.33398 -5.33398 -11.001 -2.00098c-1.33301 2 -1 4.66699 1 8c52.667 70 97.667 105 135 105
c16 0 28.667 -3.83301 38 -11.5s15.166 -22.167 17.499 -43.5s-4.16699 -50.333 -19.5 -87c-6 -15.333 -14.5 -35 -25.5 -59l-30.5 -66.5c-9.33301 -20.333 -18.833 -42.166 -28.5 -65.499s-16.667 -44.166 -21 -62.499s-6.5 -35.333 -6.5 -51s4.66699 -28 14 -37
s23.333 -14.167 42 -15.5c36 -2.66699 72.833 15.166 110.5 53.499s69.834 87.5 96.501 147.5c15.333 32.667 37.333 87.334 66 164.001c32 80.667 69.333 122 112 124c11.333 0.666992 16.666 -1.33301 15.999 -6c-0.666992 -2 -1.66699 -3.33301 -3 -4
c-19.333 -14 -37.333 -40 -54 -78s-43.334 -109 -80.001 -213c-20 -60.667 -31 -99.667 -33 -117c-4.66699 -37.333 6.66602 -57.333 33.999 -60c17.333 -1.33301 34.333 6 51 22s30.667 35 42 57c2.66699 2.66699 4.83398 3.5 6.50098 2.5s1.83398 -3.16699 0.500977 -6.5
c-10.667 -30 -28.667 -56.667 -54 -80s-52.666 -34.333 -81.999 -33c-23.333 1.33301 -39.833 10.166 -49.5 26.499s-13.334 34.833 -11.001 55.5s8.16602 43 17.499 67h-2z" />
    <glyph glyph-name="v" unicode="v" horiz-adv-x="433" 
d="M431 362c0 -22 -3.49609 -48.002 -10.4961 -78.002s-18.333 -62.167 -34 -96.5s-34.334 -65.666 -56.001 -93.999s-49.334 -52 -83.001 -71s-70.167 -28.5 -109.5 -28.5c-35.333 0 -61 9.33301 -77 28s-24 42.667 -24 72c0 36.667 25.333 103.334 76 200.001
c42 80.667 65.667 131.334 71 152.001c5.33301 26.667 -1.66699 40.334 -21 41.001c-22 0 -51.667 -26 -89 -78c-2 -2.66699 -4.33301 -3.83398 -7 -3.50098s-4.33398 1.5 -5.00098 3.5s0 4.66699 2 8c10.667 14 18.834 24.333 24.501 31s15 16.334 28 29.001
s26.667 22 41 28s29.166 9 44.499 9c29.333 0 44 -15.333 44 -46c0 -26.667 -24.667 -87 -74 -181s-74 -158.333 -74 -193c0 -52.667 22.667 -79 68 -79c42 0 82.167 19.333 120.5 58s68 83.5 89 134.5s31.5 97.833 31.5 140.5c0 21.333 -3 39.666 -9 54.999
s-12.5 26.166 -19.5 32.499s-13.833 13.333 -20.5 21s-10.334 15.5 -11.001 23.5c-2 27.333 8.66699 41 32 41c34.667 0 52 -53 52 -159z" />
    <glyph glyph-name="w" unicode="w" horiz-adv-x="691" 
d="M704 386c0.666992 -28 -3.00684 -59.1699 -11.0068 -93.5029s-20.167 -69.333 -36.5 -105s-35.5 -68.167 -57.5 -97.5s-48.333 -53 -79 -71s-63 -26.333 -97 -25c-73.333 2.66699 -104.333 35.667 -93 99c-68.667 -70 -132.667 -103 -192 -99
c-36 2 -62.333 12.5 -79 31.5s-24.667 42.833 -24 71.5c0.666992 40 29.667 106.667 87 200c45.333 75.333 71.333 122 78 140c12 31.333 7 48 -15 50c-20.667 2 -51.667 -24 -93 -78c-3.33301 -4.66699 -6.66602 -5.33398 -9.99902 -2.00098c-2 2.66699 -1.66699 6 1 10
c56 70.667 104.333 103 145 97c25.333 -4 38.166 -17 38.499 -39s-8 -49.667 -25 -83s-35.833 -67.666 -56.5 -102.999s-40 -71.666 -58 -108.999s-27.333 -67 -28 -89c-2.66699 -49.333 19 -74 65 -74c36.667 0 76 18.833 118 56.5s77.333 82.667 106 135
s44.334 100.166 47.001 143.499c2 25.333 1 45.5 -3 60.5s-9.16699 28 -15.5 39s-10.166 20.833 -11.499 29.5c-2 8.66699 0.666992 16.834 8 24.501s16.5 10.834 27.5 9.50098s20.167 -9.33301 27.5 -24c13.333 -28.667 18.333 -67 15 -115
c-1.33301 -22.667 -5.66602 -46.834 -12.999 -72.501s-14.166 -46.167 -20.499 -61.5s-14.166 -32.833 -23.499 -52.5l-15 -31.5c-40.667 -93.333 -26 -140.333 44 -141c36 -0.666992 72.333 20.333 109 63s65.334 92.334 86.001 149.001s29.334 105.334 26.001 146.001
c-2 24.667 -7.33301 43.834 -16 57.501s-17 24.167 -25 31.5s-12.667 15.333 -14 24c-2.66699 11.333 0 20.666 8 27.999s17.333 11.333 28 12c16.667 1.33301 28.5 -9.5 35.5 -32.5s10.833 -59.5 11.5 -109.5z" />
    <glyph glyph-name="x" unicode="x" horiz-adv-x="523" 
d="M595 550c10 0 18.6699 -3.00098 26.0029 -9.00098s10.666 -14 9.99902 -24c-1.33301 -22.667 -13.333 -34 -36 -34c-6 0 -13.167 2.33301 -21.5 7s-15.833 8.16699 -22.5 10.5s-18.334 -0.666992 -35.001 -9s-36.667 -23.5 -60 -45.5
c-16 -14.667 -69.667 -70.667 -161 -168c19.333 -58.667 35.666 -105.334 48.999 -140.001l9.5 -25c4.33301 -11.333 7.5 -19.333 9.5 -24l8 -19.5c3.33301 -8.33301 6.33301 -14.166 9 -17.499l9.5 -11.5c3.66699 -4.33301 7.66699 -7.33301 12 -9s8.83301 -2.5 13.5 -2.5
c11.333 0 22.5 3.16699 33.5 9.5s20.5 14.666 28.5 24.999s14 18.666 18 24.999s7.33301 11.833 10 16.5c1.33301 3.33301 2.83301 5.5 4.5 6.5s2.83398 0.666992 3.50098 -1s0.666992 -4.16699 0 -7.5c-3.33301 -6.66699 -7.33301 -14 -12 -22s-12.5 -19.667 -23.5 -35
s-25 -28 -42 -38s-34.833 -15 -53.5 -15c-13.333 0 -25 4.33301 -35 13s-16.167 15.667 -18.5 21s-5.5 13.333 -9.5 24l-66 182l-236 -256c-40 -43.333 -80.167 -74.666 -120.5 -93.999s-77.5 -24 -111.5 -14c-26 8 -35.333 21 -28 39c6 15.333 18 20.333 36 15
c3.33301 -0.666992 9.33301 -4.16699 18 -10.5s17.5 -10.833 26.5 -13.5s20.667 -3.16699 35 -1.5s32.666 10.334 54.999 26.001s47.833 38.167 76.5 67.5c0.666992 0.666992 81 88.667 241 264l-67 186c-2.66699 8.66699 -5.33398 15.5 -8.00098 20.5
s-6.83398 9.33301 -12.501 13s-11.834 4 -18.501 1s-15.834 -10 -27.501 -21s-24.834 -26.833 -39.501 -47.5c-4 -6 -8 -7.66699 -12 -5c-2.66699 2 -2.66699 4.66699 0 8c20 29.333 38.833 52.5 56.5 69.5s32.834 27.333 45.501 31s24.334 3 35.001 -2
s19.334 -12.667 26.001 -23s12.334 -23.166 17.001 -38.499c4.66699 -16.667 20.334 -65.667 47.001 -147c36 38.667 58.667 62.667 68 72c114.667 118.667 194.667 178 240 178z" />
    <glyph glyph-name="y" unicode="y" horiz-adv-x="508" 
d="M563 509c12.667 0 18.3252 -2.00098 16.9922 -6.00098c0 -1.33301 -1 -2.66602 -3 -3.99902c-20 -13.333 -37.333 -38.166 -52 -74.499s-39 -108.5 -73 -216.5c-33.333 -104.667 -62.666 -190.667 -87.999 -258c-31.333 -82 -66.5 -153 -105.5 -213
s-78.667 -106.667 -119 -140s-79.666 -57.833 -117.999 -73.5s-76.5 -23.5 -114.5 -23.5c-89.333 0 -155.333 29 -198 87c-35.333 48 -44.666 101.667 -27.999 161c18 63.333 60.333 111 127 143c52.667 25.333 115.334 37 188.001 35
c12.667 -0.666992 19.667 -6.33398 21 -17.001s-3.66699 -17.334 -15 -20.001c-4 -1.33301 -8.33301 -1.66602 -13 -0.999023s-13.5 3.5 -26.5 8.5s-25.167 7.5 -36.5 7.5c-72 0 -128 -28.667 -168 -86c-34 -49.333 -45.667 -102.666 -35 -159.999
c10.667 -60 43 -101.333 97 -124c26.667 -11.333 56.334 -17 89.001 -17c66.667 0 133 27.5 199 82.5s121.333 139.5 166 253.5c54.667 140.667 88.667 237 102 289h-2c-10.667 -20 -24.167 -40.167 -40.5 -60.5s-39.166 -40.166 -68.499 -59.499s-59 -29 -89 -29
c-31.333 0 -55.666 7.33301 -72.999 22s-26.5 32.667 -27.5 54s2.16699 44 9.5 68c14 38 33.5 87.667 58.5 149l39.5 97c12.667 32 17.5 57.333 14.5 76s-13.833 28.334 -32.5 29.001c-10 0 -22.667 -6.83301 -38 -20.5s-26.833 -25.5 -34.5 -35.5s-13.5 -18 -17.5 -24
c-3.33301 -4.66699 -7 -5.33398 -11 -2.00098c-1.33301 2 -1 4.66699 1 8l3 4c2.66699 3.33301 5.16699 6.66602 7.5 9.99902s5.5 7.5 9.5 12.5l11.5 14c3.66699 4.33301 8.16699 9.33301 13.5 15s10.5 10.667 15.5 15s10.5 8.66602 16.5 12.999s11.833 8 17.5 11
s11.667 5.5 18 7.5s12.5 3 18.5 3c15.333 0 27.833 -3.83301 37.5 -11.5s16.334 -22.167 20.001 -43.5s-1.5 -50.333 -15.5 -87c-5.33301 -15.333 -13.333 -35.166 -24 -59.499l-29 -67.5c-8.66699 -20.667 -17.5 -43 -26.5 -67s-15.333 -45.167 -19 -63.5
s-5 -35.333 -4 -51s6.83301 -27.667 17.5 -36s26 -12.5 46 -12.5c34.667 0 70 18.667 106 56s66 85.666 90 144.999c12.667 30 32.667 84.667 60 164c29.333 82.667 65.333 124 108 124z" />
    <glyph glyph-name="z" unicode="z" horiz-adv-x="455" 
d="M410 427c8 0 15.1641 2.66699 21.4971 8s13.833 14 22.5 26s14.334 19.667 17.001 23c18 21.333 33.333 28.333 46 21c10.667 -6.66699 11 -18.667 1 -36l-4 -7c-16 -23.333 -38.167 -44.666 -66.5 -63.999s-47.5 -33.333 -57.5 -42l-322 -298
c24.667 16 46.667 27.167 66 33.5s42 9.5 68 9.5c32.667 0 60.167 -10.167 82.5 -30.5s39.333 -44.833 51 -73.5s22.667 -57.334 33 -86.001s23.5 -53.167 39.5 -73.5s35.667 -30.5 59 -30.5c30 0 66.667 30.667 110 92c4.66699 6.66699 8.66699 8.5 12 5.5
s2.66602 -7.83301 -2.00098 -14.5c-50 -78 -103 -117 -159 -117c-22 0 -41.333 10.667 -58 32s-31 47.166 -43 77.499l-36.5 91c-12.333 30.333 -28.666 56.166 -48.999 77.499s-43.833 32 -70.5 32c-8.66699 0 -17.667 -1.5 -27 -4.5s-17.166 -6 -23.499 -9
s-14 -8.33301 -23 -16s-15.5 -13.334 -19.5 -17.001s-10.667 -10.334 -20 -20.001l-18 -18.5c-20 -19.333 -38 -25.666 -54 -18.999c-13.333 6 -14.666 17 -3.99902 33c2.66699 4.66699 6.33398 9.33398 11.001 14.001c8 8 46.833 43 116.5 105l200.5 179.5
c64 57.667 96.667 88.5 98 92.5c-9.33301 4 -23.833 11.667 -43.5 23s-37.334 19.666 -53.001 24.999s-33.5 8 -53.5 8c-27.333 0 -53.833 -7.5 -79.5 -22.5s-46.5 -38.167 -62.5 -69.5c-4 -7.33301 -9 -9.66602 -15 -6.99902c-3.33301 3.33301 -3.33301 8 0 14
c0.666992 1.33301 4.16699 7 10.5 17l13 20.5c2.33301 3.66699 6.83301 10.334 13.5 20.001s12 16.834 16 21.501l16.5 19c7 8 13.5 14 19.5 18s12.833 8.33301 20.5 13s15.5 8 23.5 10s16 3 24 3c19.333 0 38.5 -7.33301 57.5 -22s36.5 -29.5 52.5 -44.5s30 -22.5 42 -22.5
z" />
    <glyph glyph-name="braceleft" unicode="{" horiz-adv-x="618" 
d="M732 1153c-28.667 -19.333 -56.334 -48.0039 -83.001 -86.0039s-49.834 -78 -69.501 -120s-42.334 -87.167 -68.001 -135.5s-51.167 -92.833 -76.5 -133.5s-57.166 -78 -95.499 -112s-80.166 -58.667 -125.499 -74c38.667 -7.33301 61.834 -39.166 69.501 -95.499
s-2.83301 -144.166 -31.5 -263.499c-18 -68.667 -29.667 -129.334 -35 -182.001s-4.16602 -95.667 3.50098 -129s15.667 -58.666 24 -75.999s19.5 -35.333 33.5 -54c11.333 -14 25.5 -26.167 42.5 -36.5s26.5 -17.166 28.5 -20.499c4.66699 -7.33301 3.66699 -13.333 -3 -18
s-13.334 -4 -20.001 2c-98.667 92 -148 205.667 -148 341c0 61.333 11.333 141 34 239s34 160.667 34 188c0 67.333 -28 101 -84 101c-3.33301 0 -5.5 0.666992 -6.5 2s-0.833008 2.83301 0.5 4.5s3.33301 2.5 6 2.5c30.667 0 59.334 8 86.001 24s50.5 37.5 71.5 64.5
s41.667 58.167 62 93.5s40.5 72.5 60.5 111.5l62.5 118c21.667 39.667 46.167 77.667 73.5 114s56.666 69 87.999 98s68.333 52.833 111 71.5s88.667 29.667 138 33c14 1.33301 21.667 -3 23 -13c-2 -9.33301 -8.33301 -14.666 -19 -15.999c-2 0 -10.167 1 -24.5 3
s-27.333 3 -39 3s-29 -4 -52 -12s-46.833 -20.333 -71.5 -37z" />
    <glyph glyph-name="bar" unicode="|" horiz-adv-x="333" 
d="M383 1193c11.333 2.66699 16.6689 1.33008 16.002 -4.00293c0 -1.33301 -0.666992 -2.66602 -2 -3.99902c-20 -19.333 -37.667 -64.333 -53 -135c-2.66699 -12 -23.667 -131 -63 -357l-121 -696l-70 -401c-14.667 -83.333 -42.334 -130.333 -83.001 -141
c-12 -4 -17.667 -3 -17 3c0 2 0.666992 3.33301 2 4c19.333 19.333 36.666 63 51.999 131c2.66699 12.667 22 121.334 58 326.001l117 670l81 463c8 44 19.833 77.833 35.5 101.5s31.5 36.834 47.5 39.501z" />
    <glyph glyph-name="braceright" unicode="}" horiz-adv-x="658" 
d="M7 -313c28.667 19.333 56.335 48.0068 83.002 86.0068s50 78 70 120s42.833 87.167 68.5 135.5s51.167 92.833 76.5 133.5s57.166 78 95.499 112s80.166 58.667 125.499 74c-38.667 7.33301 -61.834 39.166 -69.501 95.499s2.83301 144.166 31.5 263.499
c18 68.667 29.667 129.334 35 182.001s4.16602 95.667 -3.50098 129s-15.834 58.666 -24.501 75.999s-20 35 -34 53c-11.333 14.667 -25.5 27.167 -42.5 37.5s-26.5 17.166 -28.5 20.499c-4 7.33301 -2.66699 13.333 4 18s13 4 19 -2c99.333 -92 149 -205.667 149 -341
c0 -61.333 -11.333 -141 -34 -239s-34 -160.667 -34 -188c0 -67.333 28 -101 84 -101c3.33301 0 5.5 -0.666992 6.5 -2s0.833008 -2.83301 -0.5 -4.5s-3.33301 -2.5 -6 -2.5c-30.667 0 -59.334 -8 -86.001 -24s-50.5 -37.5 -71.5 -64.5s-41.667 -58.167 -62 -93.5
s-40.5 -72.5 -60.5 -111.5l-62.5 -118c-21.667 -39.667 -46.167 -77.834 -73.5 -114.501s-56.666 -69.334 -87.999 -98.001s-68.333 -52.5 -111 -71.5s-88.667 -30.167 -138 -33.5c-14 -0.666992 -21.667 3.66602 -23 12.999c2 9.33301 8.33301 14.666 19 15.999
c1.33301 0 9.33301 -1 24 -3s27.834 -2.83301 39.501 -2.5s28.834 4.5 51.501 12.5s46.334 20.333 71.001 37z" />
    <glyph glyph-name="asciitilde" unicode="~" horiz-adv-x="833" 
d="M307 595c-13.333 2 -19.998 10.999 -19.998 26.999s11.167 29.5 33.5 40.5s42.5 16.5 60.5 16.5c21.333 0 40.833 -6.5 58.5 -19.5s33.834 -19.5 48.501 -19.5c18 0 36.167 9 54.5 27s33.166 27 44.499 27c5.33301 0 10 -2.83301 14 -8.5s5.33301 -12.5 4 -20.5
c-3.33301 -16 -14.333 -29.333 -33 -40s-37.667 -16 -57 -16c-16.667 0 -34.834 6.66699 -54.501 20s-37.167 20 -52.5 20c-13.333 0 -25 -3 -35 -9s-17.333 -12.667 -22 -20s-10.834 -13.666 -18.501 -18.999s-16.167 -7.33301 -25.5 -6z" />
    <glyph glyph-name="exclamdown" unicode="&#xa1;" horiz-adv-x="385" 
d="M237 301c11.333 0.666992 16.666 -1.33398 15.999 -6.00098l-3 -5c-24 -16.667 -46 -59.667 -66 -129c-27.333 -92 -53 -173.167 -77 -243.5s-50.5 -138.833 -79.5 -205.5s-58.833 -123.167 -89.5 -169.5s-64.167 -87.333 -100.5 -123s-75.833 -62.167 -118.5 -79.5
s-88.667 -26 -138 -26c-31.333 0 -55.666 4.16699 -72.999 12.5s-24.333 18.166 -21 29.499c4.66699 16.667 19 20 43 10c26 -11.333 50.5 -19 73.5 -23s49.333 -3.16699 79 2.5s58 18.334 85 38.001s56 50.5 87 92.5s61.167 94 90.5 156
c38 74.667 99.667 254.334 185 539.001c12.667 43.333 28.5 75.5 47.5 96.5s38.833 32.167 59.5 33.5zM269 502.999c11.333 0 21 -4 29 -12s12 -17.667 12 -29c0 -10.667 -4.16699 -20.167 -12.5 -28.5s-17.833 -12.5 -28.5 -12.5c-11.333 0 -21 4 -29 12s-12 17.667 -12 29
s4 21 12 29s17.667 12 29 12z" />
    <glyph glyph-name="cent" unicode="&#xa2;" horiz-adv-x="423" 
d="M429 472c4.66699 -7.33301 4.00195 -12.667 -1.99805 -16s-12 0 -18 10c-12.667 20.667 -34.334 33.334 -65.001 38.001l-134 -472c34 4 65.333 19.833 94 47.5s52.667 61.834 72 102.501c1.33301 3.33301 3.33301 5.5 6 6.5s4.5 0.666992 5.5 -1
s0.833008 -4.5 -0.5 -8.5c-11.333 -34.667 -34.833 -71.834 -70.5 -111.501s-74.834 -63.834 -117.501 -72.501c-33.333 -118 -52 -182.667 -56 -194c-7.33301 -18 -17 -31 -29 -39c-2 -2 -3.5 -2.5 -4.5 -1.5s-1.16699 3.16699 -0.5 6.5c1.33301 2 22.666 77 63.999 225
c-42 -0.666992 -76.5 12.666 -103.5 39.999s-40.5 67.333 -40.5 120c0 51.333 14.333 105.5 43 162.5s66.334 105.167 113.001 144.5s93 59 139 59l20.5 71c7 24.667 12.167 42.334 15.5 53.001l4 16c5.33301 19.333 15.333 31.666 30 36.999
c2 0.666992 3.33301 0.333984 4 -0.999023c0 -2 -1 -5.66699 -3 -11l-48 -166c38 -4.66699 65.333 -19.667 82 -45zM320.002 504.999c-54 -3.33301 -105 -40.333 -153 -111c-45.333 -67.333 -71.333 -137.333 -78 -210c-6.66699 -76 12.333 -124 57 -144
c11.333 -5.33301 24.333 -8.33301 39 -9z" />
    <glyph glyph-name="sterling" unicode="&#xa3;" horiz-adv-x="1229" 
d="M1176 -103c7.33301 -31.333 -3 -63.1689 -31 -95.502s-68.667 -59 -122 -80s-110 -31.5 -170 -31.5c-35.333 0 -70.166 5 -104.499 15s-64.333 21.833 -90 35.5s-53.5 32.167 -83.5 55.5s-53.833 43.666 -71.5 60.999l-68 67.5l-60.5 59.5c-44.667 -30 -95 -45 -151 -45
c-57.333 0 -96.333 15.667 -117 47c-16 24.667 -14 48 6 70c21.333 22.667 56.666 34 105.999 34c50.667 -0.666992 105.667 -24.667 165 -72c28 28.667 52.833 66.5 74.5 113.5s45.5 109.167 71.5 186.5c-49.333 29.333 -88.666 45.666 -117.999 48.999
c-26.667 2.66699 -51 -0.333008 -73 -9s-38.333 -20.167 -49 -34.5s-17 -30.333 -19 -48s4 -34.167 18 -49.5c6.66699 -7.33301 14.167 -12.166 22.5 -14.499s17 -3.33301 26 -3s15.167 -0.166992 18.5 -1.5c9.33301 -2.66699 12.666 -8.33398 9.99902 -17.001
s-10 -12.334 -22 -11.001c-28.667 3.33301 -52.667 16.5 -72 39.5s-26.666 48.167 -21.999 75.5s22 49.5 52 66.5s67.667 25.5 113 25.5c40 0 82 -11.667 126 -35c26 85.333 51.667 156.5 77 213.5s51.166 100.833 77.499 131.5s51 52.667 74 66s49.5 22.666 79.5 27.999
c27.333 4.66699 52.333 3.16699 75 -4.5s40.667 -17.5 54 -29.5c8.66699 -7.33301 12.167 -15.166 10.5 -23.499s-6.33398 -13.166 -14.001 -14.499s-15.5 1.33398 -23.5 8.00098c-1.33301 1.33301 -5.16602 5.5 -11.499 12.5s-11.5 12.167 -15.5 15.5
s-9.66699 7.33301 -17 12s-16 7.66699 -26 9s-21 1.33301 -33 0c-17.333 -2 -34 -7.83301 -50 -17.5s-30.167 -20.5 -42.5 -32.5s-25 -29.167 -38 -51.5s-23.667 -41.833 -32 -58.5s-18.166 -40.167 -29.499 -70.5s-19.833 -54 -25.5 -71l-24.5 -76
c-10.667 -33.667 -18.334 -57.167 -23.001 -70.5c21.333 -11.333 40.333 -19.666 57 -24.999s39.5 -9 68.5 -11s58.833 2.33301 89.5 13c5.33301 1.33301 9.16602 1.5 11.499 0.5s3 -3 2 -6s-3.83301 -5.16699 -8.5 -6.5c-88.667 -31.333 -165.667 -30.666 -231 2.00098
c-46.667 -136.667 -103.667 -233.334 -171 -290.001c16.667 -14 61.334 -55 134.001 -123c30 -28 55.833 -50.667 77.5 -68s46.5 -35.333 74.5 -54s56 -32.167 84 -40.5s56 -12.166 84 -11.499c108 3.33301 188 32.333 240 87c34 35.333 46.667 70 38 104
c-7.33301 30.667 -30 47.667 -68 51c-22.667 2 -48.334 -2 -77.001 -12c-17.333 -6 -31.333 -16 -42 -30c-6.66699 -8 -13.667 -9 -21 -3c-6.66699 4.66699 -6 10.334 2 17.001c6.66699 6.66699 21.334 14.167 44.001 22.5s48.167 15.166 76.5 20.499s55 2.83301 80 -7.5
s41.167 -30.166 48.5 -59.499zM232 -44.0029c50 0 92.668 13.667 128.001 41c-54 48.667 -100.667 73 -140 73c-46.667 0 -75.334 -12.667 -86.001 -38c-8 -20 -1.33301 -38.333 20 -55c19.333 -14 45.333 -21 78 -21z" />
    </font>
</defs>
</svg>
